.
Авторизация | Регистрация
Хочешь лучшие торренты? Добавь свой email!
Добавить
» » Каждому своё / Everybody Wants Some!! (2016) BDRemux 1080p от ExKinoRay | iTunes торрент скачать бесплатно


    Каждому своё / Everybody Wants Some!! (2016) BDRemux 1080p от ExKinoRay | iTunes торрент скачать бесплатно

    Опубликовал: Админ | Дата: 3-07-2016, 05:00 | Просмотров: 85



    Детально о кино
    Русское название: Каждому своё
    Русское название в мировом прокате: Everybody Wants Some!!
    Создали в: 2016
    Категория жанра: Комедия
    Главный режиссер: Ричард Линклейтер

    Актеры
    Блейк Дженнер, Джастон Стрит, Райан Гузман, Тайлер Хэклин, Уайатт Расселл, Глен Пауэлл, Темпл Бэйкер, Дж. Куинтон Джонсон, Уилл Бриттейн, Кортни Тейлор

    Сюжет фильма

    Сексуальная революция и любовь, пьяные тусовки и травка, брендовые шмотки и топовая музыка… Первокурсник Джейк получает комнату в общежитии колледжа и погружается в порочный водоворот беззаботной жизни Америки 80-х. Он впервые познает вкус свободы и взрослой жизни, пока даже не задумываясь о последствиях.

    Снималось в: США
    Киностудия: Paramount Pictures, Detour Filmproduction, Annapurna Pictures
    Время просмотра: 01: 51: 51
    Перевод текста: Дублированный | iTunes
    Файл
    Кодек для видео: MPEG-4
    Качество фильма: BDRemux 1080p
    Информация о видео: 1920x1080, 31.5 Mbit/s, 23.976 fps
    Информация о звуке:
    Информация о звуке #01: 48 kHz, AC3, 5.1, 384 Kbps | Дублированный, iTunes |
    Информация о звуке #02: 48 kHz, DTS-HD MA, 5.1, 3450 kbps | Оригинал |
    Релиз подготовил: Автор релиза:

    MI
    General
    Unique ID : 231030769483596339777747323911970552667 (0xADCEE85F2E068DB6BC7596DB198CFB5B)
    Complete name : F: VideoEverybody.Wants.Some!!.2016.BDREMUX.1080p.ExKinoRay.mkv
    Format : Matroska
    Format version : Version 4/Version 2
    File size : 28.9 GiB
    Duration : 1h 57mn
    Overall bit rate mode : Variable
    Overall bit rate : 35.4 Mbps
    Movie name : Everybody.Wants.Some!!.2016.BDREMUX.1080p.ExKinoRay
    Encoded date : UTC 2016-07-02 15: 07: 39
    Writing application : mkvmerge v8.3.0 (;Over the Horizon;) 64bit
    Writing library : libebml v1.3.1 + libmatroska v1.4.2
    Video
    ID : 1
    Format : AVC
    Format/Info : Advanced Video Codec
    Format profile : High@L4.1
    Format settings, CABAC : Yes
    Format settings, ReFrames : 2 frames
    Format settings, GOP : M=1, N=10
    Codec ID : V_MPEG4/ISO/AVC
    Duration : 1h 57mn
    Bit rate mode : Variable
    Bit rate : 31.5 Mbps
    Width : 1 920 pixels
    Height : 1 080 pixels
    Display aspect ratio : 16: 9
    Frame rate mode : Constant
    Frame rate : 23.976 (24000/1001) fps
    Color space : YUV
    Chroma subsampling : 4: 2: 0
    Bit depth : 8 bits
    Scan type : Progressive
    Bits/(Pixel*Frame) : 0.634
    Stream size : 25.8 GiB (89%)
    Language : English
    Default : Yes
    Forced : No
    Audio #1
    ID : 2
    Format : AC-3
    Format/Info : Audio Coding 3
    Mode extension : CM (complete main)
    Format settings, Endianness : Big
    Codec ID : A_AC3
    Duration : 1h 57mn
    Bit rate mode : Constant
    Bit rate : 384 Kbps
    Channel(s) : 6 channels
    Channel positions : Front: L C R, Side: L R, LFE
    Sampling rate : 48.0 KHz
    Frame rate : 31.250 fps (1536 spf)
    Compression mode : Lossy
    Stream size : 321 MiB (1%)
    Title : iTunes
    Language : Russian
    Default : Yes
    Forced : No
    Audio #2
    ID : 3
    Format : DTS
    Format/Info : Digital Theater Systems
    Format profile : MA/Core
    Mode : 16
    Format settings, Endianness : Big
    Codec ID : A_DTS
    Duration : 1h 57mn
    Bit rate mode : Variable/Constant
    Bit rate : 3 450 Kbps/1 509 Kbps
    Channel(s) : 6 channels
    Channel positions : Front: L C R, Side: L R, LFE
    Sampling rate : 48.0 KHz
    Frame rate : 93.750 fps (512 spf)
    Bit depth : 24 bits
    Compression mode : Lossless/Lossy
    Stream size : 2.82 GiB (10%)
    Title : Original
    Language : English
    Default : No
    Forced : No
    Text #1
    ID : 4
    Format : UTF-8
    Codec ID : S_TEXT/UTF8
    Codec ID/Info : UTF-8 Plain Text
    Duration : 1h 54mn
    Bit rate : 90 bps
    Count of elements : 2177
    Stream size : 75.7 KiB (0%)
    Language : English
    Default : No
    Forced : No
    Text #2
    ID : 5
    Format : UTF-8
    Codec ID : S_TEXT/UTF8
    Codec ID/Info : UTF-8 Plain Text
    Duration : 1h 56mn
    Bit rate : 97 bps
    Count of elements : 2538
    Stream size : 83.2 KiB (0%)
    Title : SDH
    Language : English
    Default : No
    Forced : No
    Menu
    00: 00: 00.000 : en: 00: 00: 00.000
    00: 06: 56.625 : en: 00: 06: 56.625
    00: 12: 28.665 : en: 00: 12: 28.665
    00: 17: 49.902 : en: 00: 17: 49.902
    00: 26: 55.781 : en: 00: 26: 55.781
    00: 35: 33.840 : en: 00: 35: 33.840
    00: 44: 54.442 : en: 00: 44: 54.442
    00: 48: 07.551 : en: 00: 48: 07.551
    00: 55: 31.453 : en: 00: 55: 31.453
    01: 03: 00.151 : en: 01: 03: 00.151
    01: 07: 08.524 : en: 01: 07: 08.524
    01: 14: 54.198 : en: 01: 14: 54.198
    01: 23: 06.231 : en: 01: 23: 06.231
    01: 29: 43.253 : en: 01: 29: 43.253
    01: 36: 26.864 : en: 01: 36: 26.864
    01: 42: 52.583 : en: 01: 42: 52.583
    01: 50: 22.908 : en: 01: 50: 22.908
    Скриншоты


    Онлайн видео Каждому своё


    Размер скачиваемого торрента: 28.93 GB (31064032433 Bytes)

    Каждому своё/Everybody Wants Some!! (2016) BDRemux 1080p от ExKinoRay | iTunes
    загрузка...
    Рейтинг →
     (голосов: 1, оценка 4/5, голосовать можно 1 раз )

    Другие торренты по теме:

  • Корсары: Каждому своё / Pirates Odyssey: To Each His Own (2012) PC | Repack от R.G. UPG
  • Корсары: Каждому своё / Pirates Odyssey: To Each His Own (2012) PC | Repack от R.G. Revenants
  • Корсары: Каждому своё / Pirates Odyssey: To Each His Own (2012) PC | Steam-Rip скачать через торрент бесплатно
  • OST - Каждому своё / Everybody Wants Some (2016) FLAC
  • Каждому своё / Everybody Wants Some!! (2016) WEB-DLRip | Line
  • Каждому своё / Everybody Wants Some!! (2016)
  • Каждому своё / Everybody Wants Some! (2016) WEB-DLRip | iTunes
  • Каждому своё / Everybody Wants Some (2016) WEB-DLRip от Scarabey | iTunes


    • Комментарии (0):

      Информация

      Информация

        Посетители, находящиеся в группе Гости, не могут оставлять комментарии в данной новости.

        ↓ Меню



        ↓ Опрос

        А Вы добавили сайт в закладки?
        Да
        Не


        Top 10 за месяц (Фильмы)