.
Авторизация | Регистрация
Хочешь лучшие торренты? Добавь свой email!
Добавить
» » Дэдпул / Deadpool (2016) BDRip 1080p | P торрент скачать бесплатно




    Дэдпул / Deadpool (2016) BDRip 1080p | P торрент скачать бесплатно

    Опубликовал: Админ | Дата: 3-07-2016, 05:00 | Просмотров: 63



    Детально о кино
    Русское название: Дэдпул
    Русское название в мировом прокате: Deadpool
    Создали в: 2016
    Категория жанра: фантастика, боевик, комедия, приключения
    Главный режиссер: Тим Миллер

    Актеры
    Райан Рейнольдс, Морена Баккарин, Джина Карано, ТиДжей Миллер, Эд Скрейн, Рэйчел Шин, Брианна Хилдебранд, Андре Трикоте, Тэйлор Хиксон, Джед Риис

    Сюжет фильма
    Уэйд Уилсон — наёмник. Будучи побочным продуктом программы вооружённых сил под названием Оружие X, Уилсон приобрёл невероятную силу, проворство и способность к исцелению. Но страшной ценой: его клеточная структура постоянно меняется, а здравомыслие сомнительно. Всё, чего Уилсон хочет, — это держаться на плаву в социальной выгребной яме. Но течение в ней слишком быстрое.


    Снималось в: США, Канада/20th Century Fox Film Corporation, Marvel Entertainment, TSG Entertainment
    Время просмотра: 01: 48: 06
    Перевод текста: Профессиональный (многоголосый, закадровый) Кубик в Кубе
    Роли озвучивали: Петр Гланц, Денис Колесников, Ольга Кравцова, Руслан Габидуллин
    Файл
    Тип видео: MKV
    Качество фильма: BDRip 1080p
    Информация о видео: MPEG-4 AVC, 16.7 Мb/s, 1920x808
    Информация о звуке: Russian: AC3, 384 kb/s (6 ch)/English: DTS-ES, 1510 kb/s (6 ch)
    Субтитры: Russian (forced, full), English (forced, full, SDH)

    MI

    Общее
    Уникальный идентификатор : 194858780300704252279239557177701674662 (0x92986F9D17A862B89A69A4C813C9AEA6)
    Полное имя : D: загрузкиDeadpool.2016.P.BDRip.1080p.mkv
    Формат : Matroska
    Версия формата : Version 4/Version 2
    Размер файла : 14, 1 Гбайт
    Продолжительность : 1 ч. 48 м.
    Общий поток : 18, 6 Мбит/сек
    Дата кодирования : UTC 2016-07-02 16: 54: 25
    Программа кодирования : mkvmerge v8.3.0 (;Over the Horizon;) 64bit
    Библиотека кодирования : libebml v1.3.1 + libmatroska v1.4.2
    Видео
    Идентификатор : 1
    Формат : AVC
    Формат/Информация : Advanced Video Codec
    Профиль формата : High@L4.1
    Параметр CABAC формата : Да
    Параметр ReFrames формата : 5 кадров
    Идентификатор кодека : V_MPEG4/ISO/AVC
    Продолжительность : 1 ч. 48 м.
    Битрейт : 16, 7 Мбит/сек
    Ширина : 1920 пикселей
    Высота : 808 пикселей
    Соотношение сторон : 2, 40: 1
    Режим частоты кадров : Постоянный
    Частота кадров : 23, 976 кадра/сек
    Цветовое пространство : YUV
    Субдискретизация насыщенности : 4: 2: 0
    Битовая глубина : 8 бит
    Тип развёртки : Прогрессивная
    Бит/(Пиксели*Кадры) : 0.450
    Размер потока : 12, 4 Гбайт (88%)
    Заголовок : Deadpool.2016.P.BDRip.1080p
    Библиотека кодирования : x264 core 146 r2538 121396c
    Настройки программы : cabac=1/ref=5/deblock=1: -3: -3/analyse=0x3: 0x133/me=umh/subme=11/psy=1/psy_rd=1.00: 0.00/mixed_ref=1/me_range=48/chroma_me=1/trellis=2/8x8dct=1/cqm=0/deadzone=21, 11/fast_pskip=0/chroma_qp_offset=-2/threads=6/lookahead_threads=1/sliced_threads=0/nr=0/decimate=0/interlaced=0/bluray_compat=0/constrained_intra=0/bframes=16/b_pyramid=2/b_adapt=2/b_bias=0/direct=3/weightb=1/open_gop=0/weightp=2/keyint=240/keyint_min=23/scenecut=40/intra_refresh=0/rc_lookahead=60/rc=2pass/mbtree=0/bitrate=16732/ratetol=1.0/qcomp=0.60/qpmin=0/qpmax=69/qpstep=4/cplxblur=20.0/qblur=0.5/vbv_maxrate=50000/vbv_bufsize=62500/nal_hrd=none/filler=0/ip_ratio=1.40/pb_ratio=1.30/aq=3: 0.80
    Язык : English
    Default : Да
    Forced : Нет
    Аудио #1
    Идентификатор : 7
    Формат : AC-3
    Формат/Информация : Audio Coding 3
    Расширение режима : CM (complete main)
    Параметр Endianness формата : Big
    Идентификатор кодека : A_AC3
    Продолжительность : 1 ч. 48 м.
    Вид битрейта : Постоянный
    Битрейт : 384 Кбит/сек
    Каналы : 6 каналов
    Расположение каналов : Front: L C R, Side: L R, LFE
    Частота : 48, 0 КГц
    Битовая глубина : 16 бит
    Метод сжатия : С потерями
    Размер потока : 297 Мбайт (2%)
    Заголовок : Кубик в Кубе
    Язык : Russian
    Default : Да
    Forced : Нет
    Аудио #2
    Идентификатор : 8
    Формат : DTS
    Формат/Информация : Digital Theater Systems
    Профиль формата : ES
    Режим : 16
    Параметр Endianness формата : Big
    Идентификатор кодека : A_DTS
    Продолжительность : 1 ч. 48 м.
    Вид битрейта : Постоянный
    Битрейт : 1509 Кбит/сек
    Каналы : 6 каналов
    Расположение каналов : Front: L C R, Side: L R, LFE
    Частота : 48, 0 КГц
    Битовая глубина : 24 бит
    Метод сжатия : С потерями
    Размер потока : 1, 14 Гбайт (8%)
    Язык : English
    Default : Нет
    Forced : Нет
    Текст #1
    Идентификатор : 2
    Формат : UTF-8
    Идентификатор кодека : S_TEXT/UTF8
    Идентификатор кодека/Информация : UTF-8 Plain Text
    Заголовок : Forced iTunes
    Язык : Russian
    Default : Да
    Forced : Нет
    Текст #2
    Идентификатор : 3
    Формат : UTF-8
    Идентификатор кодека : S_TEXT/UTF8
    Идентификатор кодека/Информация : UTF-8 Plain Text
    Заголовок : iTunes
    Язык : Russian
    Default : Нет
    Forced : Нет
    Текст #3
    Идентификатор : 4
    Формат : UTF-8
    Идентификатор кодека : S_TEXT/UTF8
    Идентификатор кодека/Информация : UTF-8 Plain Text
    Заголовок : Forced
    Язык : English
    Default : Нет
    Forced : Нет
    Текст #4
    Идентификатор : 5
    Формат : UTF-8
    Идентификатор кодека : S_TEXT/UTF8
    Идентификатор кодека/Информация : UTF-8 Plain Text
    Заголовок : Original
    Язык : English
    Default : Нет
    Forced : Нет
    Текст #5
    Идентификатор : 6
    Формат : UTF-8
    Идентификатор кодека : S_TEXT/UTF8
    Идентификатор кодека/Информация : UTF-8 Plain Text
    Заголовок : SDH
    Язык : English
    Default : Нет
    Forced : Нет
    Меню
    00: 00: 00.000 : en: Chapter 01
    00: 03: 04.726 : en: Chapter 02
    00: 05: 53.019 : en: Chapter 03
    00: 09: 30.820 : en: Chapter 04
    00: 13: 19.090 : en: Chapter 05
    00: 16: 48.716 : en: Chapter 06
    00: 20: 12.545 : en: Chapter 07
    00: 22: 06.408 : en: Chapter 08
    00: 27: 09.628 : en: Chapter 09
    00: 31: 58.959 : en: Chapter 10
    00: 36: 51.709 : en: Chapter 11
    00: 41: 06.172 : en: Chapter 12
    00: 44: 45.766 : en: Chapter 13
    00: 46: 56.605 : en: Chapter 14
    00: 50: 10.966 : en: Chapter 15
    00: 53: 18.028 : en: Chapter 16
    00: 55: 33.038 : en: Chapter 17
    00: 59: 07.753 : en: Chapter 18
    01: 03: 05.240 : en: Chapter 19
    01: 07: 06.439 : en: Chapter 20
    01: 09: 15.568 : en: Chapter 21
    01: 12: 29.720 : en: Chapter 22
    01: 16: 46.393 : en: Chapter 23
    01: 20: 43.714 : en: Chapter 24
    01: 25: 53.398 : en: Chapter 25
    01: 31: 03.792 : en: Chapter 26
    01: 34: 46.973 : en: Chapter 27
    01: 39: 52.737 : en: Chapter 28
    Скриншоты






    Онлайн видео Дэдпул


    Размер скачиваемого торрента: 14.06 GB (15096054855 Bytes)

    Дэдпул/Deadpool (2016) BDRip 1080p | P
    загрузка...
    Рейтинг →
     (голосов: 1, оценка 3/5, голосовать можно 1 раз )

    Другие торренты по теме:

  • Дэдпул / DeadPool (2016) качество CAMRip PROPER
  • Дэдпул / Deadpool (2016) CAMRip
  • Дэдпул / Deadpool (2015) WEBRip | Звук с CAMRip
  • Дэдпул / Deadpool (2016) WEB-DLRip от Dalemake | D | iTunes
  • Дэдпул / Deadpool (2016) WEB-DL 720p | iTunes
  • Дэдпул / Deadpool (2016) BDRip 1080p | iTunes, A, L1
  • Дэдпул / Deadpool (2016) WEB-DLRip от Scarabey | iTunes
  • Дэдпул / Deadpool (2016) WEB-DL 720p от ExKinoRay | D, A


    • Комментарии (0):

      Информация

      Информация

        Посетители, находящиеся в группе Гости, не могут оставлять комментарии в данной новости.

        ↓ Меню



        ↓ Опрос

        А Вы добавили сайт в закладки?
        Да
        Не


        Top 10 за месяц (Фильмы)