.
Авторизация | Регистрация
» » Бэтмен против Супермена: На заре справедливости / Batman v Superman: Dawn of Justice (2016) WEB-DLRip от ExKinoRay | ULTIMATE EDITION| D скачать торрент бесплатно




    Бэтмен против Супермена: На заре справедливости / Batman v Superman: Dawn of Justice (2016) WEB-DLRip от ExKinoRay | ULTIMATE EDITION| D скачать торрент бесплатно

    Опубликовал: Админ | Дата: 4-07-2016, 05:00 | Просмотров: 52



    Детально о кино
    Русское название: Бэтмен против Супермена: На заре справедливости
    Русское название в мировом прокате: Batman v Superman: Dawn of Justice
    Создали в: 2016
    Категория жанра: Фантастика, фэнтези, боевик, приключения
    Главный режиссер: Зак Снайдер

    Актеры
    Генри Кавилл, Бен Аффлек, Галь Гадот, Джейсон Момоа, Эми Адамс, Джесси Айзенберг, Джеффри Дин Морган, Джена Мэлоун, Эзра Миллер

    Сюжет фильма
    Опасаясь, что действия богоподобного супергероя так и останутся бесконтрольными, грозный и могущественный страж Готэм Сити бросает вызов самому почитаемому в наши дни спасителю Метрополиса, в то время как весь остальной мир решает, какой герой ему по-настоящему нужен. И пока Бэтмен и Супермен пребывают в состоянии войны друг с другом, возникает новая угроза, которая ставит человечество под самую большую опасность, с которой оно когда-либо сталкивалось.

    Снималось в: США/Atlas Entertainment, DC Comics, DC Entertainment, RatPac-Dune Entertainment, Warner Bros. Pictures
    Время просмотра: 03: 02: 31
    Перевод текста: Профессиональный iTunes
    Файл
    Кодек для видео: AVI
    Качество фильма: WEB-DLRip
    Информация о видео: XviD, 1015 Кбит/с, 656x272
    Информация о звуке: МР3, 2 ch, 128 Кбит/с
    Субтитры: Русские (вшитые на места без перевода и на надписи)
    Инфо файл
    Общее
    Полное имя : D: ВидеоBatman.v.Superman.Dawn.of.Justice.2016.Extended.Ultimate.Edition.WEB DLRip by Vovan366(ExKinoRay).avi
    Формат : AVI
    Формат/Информация : Audio Video Interleave
    Размер файла : 1, 47 Гбайт
    Продолжительность : 3 ч. 2 м.
    Общий поток : 1152 Кбит/сек
    Программа кодирования : VirtualDubMod 1.5.10.3 | www.virtualdub-fr.org || (build 2550/release)
    Библиотека кодирования : VirtualDubMod build 2550/release
    Видео
    Идентификатор : 0
    Формат : MPEG-4 Visual
    Профиль формата : Advanced Simple@L5
    Параметр BVOP формата : 2
    Параметр QPel формата : Нет
    Параметр GMC формата : Без точки перехода
    Параметр матрицы формата : Выборочная
    Режим смешивания : Сжатый битовый поток
    Идентификатор кодека : XVID
    Идентификатор кодека/Подсказка : XviD
    Продолжительность : 3 ч. 2 м.
    Битрейт : 1015 Кбит/сек
    Ширина : 656 пикселей
    Высота : 272 пикселя
    Соотношение сторон : 2, 40: 1
    Частота кадров : 23, 976 кадра/сек
    Цветовое пространство : YUV
    Субдискретизация насыщенности : 4: 2: 0
    Битовая глубина : 8 бит
    Тип развёртки : Прогрессивная
    Метод сжатия : С потерями
    Бит/(Пиксели*Кадры) : 0.237
    Размер потока : 1, 29 Гбайт (88%)
    Библиотека кодирования : XviD 73
    Аудио
    Идентификатор : 1
    Формат : MPEG Audio
    Версия формата : Version 1
    Профиль формата : Layer 3
    Идентификатор кодека : 55
    Идентификатор кодека/Подсказка : MP3
    Продолжительность : 3 ч. 2 м.
    Вид битрейта : Постоянный
    Битрейт : 128 Кбит/сек
    Каналы : 2 канала
    Частота : 48, 0 КГц
    Метод сжатия : С потерями
    Размер потока : 167 Мбайт (11%)
    Выравнивание : Соединение по промежуткам
    Продолжительность промежутка : 42 мс. (1, 00 видеокадр)
    Время предзагрузки промежутка : 504 мс.
    Библиотека кодирования : LAME3.99r
    Залил: Wazzzup RK

    Онлайн видео Бэтмен против Супермена: На заре справедливости


    Размер скачиваемого торрента: 1.47 GB (1577242624 Bytes)


    Бэтмен против Супермена: На заре справедливости/Batman v Superman: Dawn of Justice (2016) WEB-DLRip от ExKinoRay | ULTIMATE EDITION| D
    загрузка...
    Рейтинг →
     (голосов: 1, оценка 3/5, голосовать можно 1 раз )

    Другие торренты по теме:

  • Бэтмен против Дракулы / The Batman vs Dracula: The Animated Movie (2005) WEB-DLRip от Deadmauvlad | D | iTunes торрент скачать бесплатно
  • Бэтмен против Робина / Batman vs. Robin (2015) HDRip | L скачать торрент бесплатно
  • Бэтмен против Робина / Batman vs. Robin (2015) WEB-DL 1080p | L1 скачать торрент бесплатно
  • Бэтмен против Робина / Batman vs. Robin (2015) HDRip | L1 скачать торрент бесплатно
  • Бэтмен против Робина / Batman vs. Robin (2015) WEB-DLRip | Sub скачать торрент бесплатно
  • Бэтмен против Супермена: На заре справедливости / Batman v Superman: Dawn of Justice (2016) DCPrip | 2K, Hi10P | Тизер-трейлер скачать торрент бесплатно
  • Бэтмен против Робина / Batman vs. Robin (2015) BDRemux 1080p скачать торрент бесплатно
  • Бэтмен против Супермена: На заре справедливости / Batman v Superman: Dawn of Justice (2016) WEBRip 1080p | Трейлер#3 скачать торрент бесплатно


    • Комментарии (0):

      Информация

      Информация

        Посетители, находящиеся в группе Гости, не могут оставлять комментарии в данной новости.

        ↓ Меню



        ↓ Опрос

        А Вы добавили сайт в закладки?
        Да
        Не


        Top 10 за неделю (Фильмы)