.
Авторизация | Регистрация
Хочешь лучшие торренты? Добавь свой email!
Добавить
» » Небо и земля / Heaven Earth (1993) BDRip от Koenig | P2 торрент скачать бесплатно




    Небо и земля / Heaven Earth (1993) BDRip от Koenig | P2 торрент скачать бесплатно

    Опубликовал: Админ | Дата: 4-07-2016, 05:00 | Просмотров: 57



    Детально о кино
    Русское название: Небо и земля
    Русское название в мировом прокате: Heaven Earth
    Создали в: 1993
    Категория жанра: Драма, боевик, военный, биография, история
    Главный режиссер: Оливер Стоун

    Актеры
    Хьеп Тхи Ле, Томми Ли Джонс, Джоан Чен, Хэйнг С. Нгор, Дебби Рейнолдс, Дастин Нгуен, Вивиан У, Тхуан К. Нгуен, Лан Нгуен Калдерон, Тхуан Ле, Май Ле Хо, Винь Данг

    Сюжет фильма

    Драматическая история вьетнамской женщины на протяжении 30 лет — три разных периода ее жизни. Когда-то ее жизнь была безмятежной и прекрасной… Но ее мир рухнул, когда началась Вьетнамская война. Ее судьба — это судьба женщины, оказавшейся на родной земле между двух огней — Севера и Юга. Ее пытали защитники старого режима, коммунисты изнасиловали. Работая в богатом доме в Сайгоне, она прижила ребенка от хозяина. Лишь выйдя замуж за американского сержанта Стива Батлера, героиня фильма узнала, что такое любовь и уважение. Вскоре она уезжает с мужем в Америку, где ее ждут новые испытания...

    Снималось в: Франция, США
    Киностудия: Alcor Films, Canal+ fr, Ixtlan Corporation, New Regency Pictures, Regency Enterprises
    Время просмотра: 02: 21: 26
    Перевод текста: Профессиональный двухголосый
    Файл
    Качество фильма: BDRip
    Информация о видео: XviD, 1620 Кбит/с, 720x304, 23.976 кадр/с
    Информация о звуке #1: AC3, 6 ch, 448 Кбит/с | Профессиональный двухголосый (НТВ+)
    Информация о звуке #2: AC3, 1 ch, 128 Кбит/с | Профессиональный двухголосый (ОРТ)
    MediaInfo
    Общее
    Полное имя : Heaven.and.Earth.1993.BDRip.avi
    Формат : AVI
    Формат/Информация : Audio Video Interleave
    Профиль формата : OpenDML
    Размер файла : 2, 19 Гбайт
    Продолжительность : 2 ч. 21 м.
    Общий поток : 2213 Кбит/сек
    Программа кодирования : VirtualDubMod 1.5.10.2 (build 2540/release)
    Библиотека кодирования : VirtualDubMod build 2540/release
    Видео
    Идентификатор : 0
    Формат : MPEG-4 Visual
    Профиль формата : Advanced Simple@L5
    Параметр BVOP формата : 2
    Параметр QPel формата : Да
    Параметр GMC формата : Без точки перехода
    Параметр матрицы формата : Default (H.263)
    Идентификатор кодека : XVID
    Идентификатор кодека/Подсказка : XviD
    Продолжительность : 2 ч. 21 м.
    Битрейт : 1620 Кбит/сек
    Ширина : 720 пикселей
    Высота : 304 пикселя
    Соотношение сторон : 2, 35: 1
    Частота кадров : 23, 976 кадра/сек
    Цветовое пространство : YUV
    Субдискретизация насыщенности : 4: 2: 0
    Битовая глубина : 8 бит
    Тип развёртки : Прогрессивная
    Метод сжатия : С потерями
    Бит/(Пиксели*Кадры) : 0.309
    Размер потока : 1, 60 Гбайт (73%)
    Библиотека кодирования : XviD 1.2.0.dev47 (UTC 2006-11-01)
    Аудио #1
    Идентификатор : 1
    Формат : AC-3
    Формат/Информация : Audio Coding 3
    Расширение режима : CM (complete main)
    Параметр Endianness формата : Big
    Идентификатор кодека : 2000
    Продолжительность : 2 ч. 21 м.
    Вид битрейта : Постоянный
    Битрейт : 448 Кбит/сек
    Каналы : 6 каналов
    Расположение каналов : Front: L C R, Side: L R, LFE
    Частота : 48, 0 КГц
    Метод сжатия : С потерями
    Размер потока : 453 Мбайт (20%)
    Выравнивание : Разделение по промежуткам
    Продолжительность промежутка : 42 мс. (1, 00 видеокадр)
    Время предзагрузки промежутка : 500 мс.
    Аудио #2
    Идентификатор : 2
    Формат : AC-3
    Формат/Информация : Audio Coding 3
    Расширение режима : CM (complete main)
    Параметр Endianness формата : Big
    Идентификатор кодека : 2000
    Продолжительность : 2 ч. 21 м.
    Вид битрейта : Постоянный
    Битрейт : 128 Кбит/сек
    Каналы : 1 канал
    Расположение каналов : Front: C
    Частота : 48, 0 КГц
    Метод сжатия : С потерями
    Размер потока : 129 Мбайт (6%)
    Выравнивание : Разделение по промежуткам
    Продолжительность промежутка : 42 мс. (1, 00 видеокадр)
    Время предзагрузки промежутка : 500 мс.
    Скриншоты

    Залил: Koenig602

    Онлайн видео Небо и земля


    Размер скачиваемого торрента: 2.19 GB (2348064768 Bytes)

    Небо и земля/Heaven Earth (1993) BDRip от Koenig | P2
    загрузка...
    Рейтинг →
     (голосов: 1, оценка 4/5, голосовать можно 1 раз )

    Другие торренты по теме:



      Комментарии (0):

      Информация

      Информация

        Посетители, находящиеся в группе Гости, не могут оставлять комментарии в данной новости.

        ↓ Меню



        ↓ Опрос

        А Вы добавили сайт в закладки?
        Да
        Не


        Top 10 за месяц (Фильмы)