.
Авторизация | Регистрация
Хочешь лучшие торренты? Добавь свой email!
Добавить
» » Дорогая Элеонора / Dear Eleanor (2016) WEB-DL 720p | iTunes торрент скачать бесплатно




    Дорогая Элеонора / Dear Eleanor (2016) WEB-DL 720p | iTunes торрент скачать бесплатно

    Опубликовал: Админ | Дата: 5-07-2016, 05:00 | Просмотров: 61



    Детально о кино
    Русское название: Дорогая Элеонора
    Русское название в мировом прокате: Dear Eleanor
    Создали в: 2016
    Категория жанра: драма, комедия, приключения, семейный, история
    Режисер: Кевин Коннолли

    Актеры
    Изабель Фурман, Лиана Либерато, Джессика Альба, Джош Лукас, Люк Уилсон, Клер ван дер Бом, Айони Скай, Патрик Шварценеггер, Джоэл Кортни, Пол Йоханссон

    Сюжет фильма
    Две молодых девушки путешествуют по США в 1962 году, во время хаоса кубинского ракетного кризиса, в поисках Элеоноры Рузвельт.


    Снималось в: США/Nine Nights
    Время просмотра: 01: 29: 31
    Тип перевода: Профессиональное (многоголосое) iTunes
    Файл
    Тип видео: MKV
    Качество фильма: WEB-DL 720p
    Информация о видео: MPEG-4 AVC, 3868 kb/s, 1280x532
    Информация о звуке: AC3, 384 Kb/s (6 ch)
    MI

    Format : Matroska
    Format version : Version 2
    File size : 2.71 GiB
    Duration : 1h 29mn
    Overall bit rate : 4 338 Kbps
    Encoded date : UTC 2016-07-04 07: 06: 23
    Writing application : mkvmerge v7.8.0 (;River Man;) 32bit built on Apr 3 2015 12: 11: 22
    Writing library : libebml v1.3.1 + libmatroska v1.4.2
    Video
    ID : 1
    Format : AVC
    Format/Info : Advanced Video Codec
    Format profile : Main@L3.1
    Format settings, CABAC : No
    Format settings, ReFrames : 2 frames
    Codec ID : V_MPEG4/ISO/AVC
    Duration : 1h 29mn
    Bit rate : 3 868 Kbps
    Width : 1 280 pixels
    Height : 532 pixels
    Display aspect ratio : 2.40: 1
    Frame rate mode : Constant
    Frame rate : 23.976 fps
    Color space : YUV
    Chroma subsampling : 4: 2: 0
    Bit depth : 8 bits
    Scan type : Progressive
    Bits/(Pixel*Frame) : 0.237
    Stream size : 2.42 GiB (89%)
    Title : Rustorrents.info
    Language : English
    Default : Yes
    Forced : No
    Color range : Limited
    Color primaries : BT.709
    Transfer characteristics : BT.709
    Matrix coefficients : BT.709
    Audio
    ID : 2
    Format : AC-3
    Format/Info : Audio Coding 3
    Mode extension : CM (complete main)
    Format settings, Endianness : Big
    Codec ID : A_AC3
    Duration : 1h 29mn
    Bit rate mode : Constant
    Bit rate : 384 Kbps
    Channel(s) : 6 channels
    Channel positions : Front: L C R, Side: L R, LFE
    Sampling rate : 48.0 KHz
    Bit depth : 16 bits
    Compression mode : Lossy
    Stream size : 246 MiB (9%)
    Title : Rustorrents.info
    Language : Russian
    Default : Yes
    Forced : No
    Menu
    00: 00: 00.000 : en: 1
    00: 05: 41.007 : en: 2
    00: 12: 06.558 : en: 3
    00: 16: 03.001 : en: 4
    00: 19: 23.992 : en: 5
    00: 25: 31.067 : en: 6
    00: 32: 05.752 : en: 7
    00: 38: 48.154 : en: 8
    00: 45: 34.226 : en: 9
    00: 50: 46.829 : en: 10
    00: 57: 15.843 : en: 11
    01: 01: 53.703 : en: 12
    01: 06: 47.288 : en: 13
    01: 10: 33.973 : en: 14
    01: 15: 55.961 : en: 15
    01: 22: 41.365 : en: 16
    Скриншоты

    Релиз:




    Онлайн видео Дорогая Элеонора


    Размер скачиваемого торрента: 2.71 GB (2912760944 Bytes)

    Дорогая Элеонора/Dear Eleanor (2016) WEB-DL 720p | iTunes
    загрузка...
    Рейтинг →
     (голосов: 1, оценка 4/5, голосовать можно 1 раз )

    Другие торренты по теме:

  • Дорогая Элеонора / Dear Eleanor (2016) WEB-DLRip | iTunes


    • Комментарии (0):

      Информация

      Информация

        Посетители, находящиеся в группе Гости, не могут оставлять комментарии в данной новости.

        ↓ Меню



        ↓ Опрос

        А Вы добавили сайт в закладки?
        Да
        Не


        Top 10 за месяц (Фильмы)