.
Авторизация | Регистрация
» » Последнее соблазнение / The Last Seduction (1994) BDRip-AVC | Р скачать торрент бесплатно




    Последнее соблазнение / The Last Seduction (1994) BDRip-AVC | Р скачать торрент бесплатно

    Опубликовал: Админ | Дата: 6-07-2016, 16:12 | Просмотров: 131



    Создали в: США, Великобритания, Incorporated Television Company (ITC)
    Категория жанра: Триллер, Драма, Криминал
    Главный режиссер: Джон Дал
    Актеры: Линда Фиорентино, Билл Пуллман, Зак Файфер, Питер Берг, Брайан Варади, Дин Норрис, Донна Уилсон, Мик Скриба, Дж.Т. Уолш, Патриция Р. Каприо, Херб Митчел, Билл Нанн

    Описание фильма

    Бриджет хочет иметь все. И сейчас. Цена значения не имеет. Она сбегает с миллионом долларов, принадлежащих кредиторам ее мужа, и прячется в маленьком городке под Нью-Йорком. Встретив там Майка, она склоняет его к страстному роману. Майк еще никогда не встречал женщину, подобную Бриджет. Она умна, шикарна и обворожительна. Она не рассказывает о прошлом и не дает никаких обещаний на будущее. Бриджет посвящает Майка в план, как можно быстро заработать. А тем временем разгневанный муж хочет любой ценой вернуть деньги. Но Бриджет не намерена сдаваться без боя. И, в конце концов, кто-то попадет на кладбище, кто-то - в тюрьму… а кто-то станет очень-очень богатым.
    Время просмотра: 01: 49: 54
    Качество фильма видео: BDRip-AVC
    Перевод текста: Профессиональный (многоголосый закадровый)
    Информация о видео: AVC, 1024x576 (16: 9), 24 fps, 2 392 Kbps (0.169 bit/pixel)
    Информация о звуке: AC-3, 48.0 KHz, 6 ch, 448 Kbps
    Mediainfo:

    Формат : Matroska
    Версия формата : Version 2
    Размер файла : 2, 18 Гбайт
    Продолжительность : 1 ч. 50 м.
    Общий поток : 2830 Кбит/сек
    Дата кодирования : UTC 2016-07-05 07: 38: 16
    Программа кодирования : mkvmerge v5.3.0 (;I could have danced;) built on Feb 9 2012 10: 38: 07
    Библиотека кодирования : libebml v1.2.3 + libmatroska v1.3.0
    Attachment : Yes
    Видео
    Идентификатор : 1
    Формат : AVC
    Формат/Информация : Advanced Video Codec
    Профиль формата : High@L4.1
    Параметр CABAC формата : Да
    Параметр ReFrames формата : 9 кадров
    Идентификатор кодека : V_MPEG4/ISO/AVC
    Продолжительность : 1 ч. 50 м.
    Битрейт : 2392 Кбит/сек
    Ширина : 1024 пикселя
    Высота : 576 пикселей
    Соотношение сторон : 16: 9
    Режим частоты кадров : Постоянный
    Частота кадров : 24, 000 кадра/сек
    Цветовое пространство : YUV
    Субдискретизация насыщенности : 4: 2: 0
    Битовая глубина : 8 бит
    Тип развёртки : Прогрессивная
    Бит/(Пиксели*Кадры) : 0.169
    Размер потока : 1, 79 Гбайт (82%)
    Библиотека кодирования : x264 core 146 r2538 121396c
    Настройки программы : cabac=1/ref=9/deblock=1: -3: -2/analyse=0x3: 0x133/me=umh/subme=10/psy=1/psy_rd=1.00: 0.15/mixed_ref=1/me_range=32/chroma_me=1/trellis=2/8x8dct=1/cqm=0/deadzone=21, 11/fast_pskip=0/chroma_qp_offset=-3/threads=12/lookahead_threads=2/sliced_threads=0/nr=0/decimate=0/interlaced=0/bluray_compat=0/constrained_intra=0/bframes=8/b_pyramid=2/b_adapt=2/b_bias=0/direct=3/weightb=1/open_gop=0/weightp=2/keyint=240/keyint_min=23/scenecut=40/intra_refresh=0/rc_lookahead=40/rc=2pass/mbtree=0/bitrate=2392/ratetol=1.0/qcomp=0.60/qpmin=0/qpmax=69/qpstep=4/cplxblur=20.0/qblur=0.5/vbv_maxrate=50000/vbv_bufsize=62500/nal_hrd=none/filler=0/ip_ratio=1.40/pb_ratio=1.30/aq=2: 0.80
    Default : Да
    Forced : Нет
    Аудио
    Идентификатор : 2
    Формат : AC-3
    Формат/Информация : Audio Coding 3
    Расширение режима : CM (complete main)
    Параметр Endianness формата : Big
    Идентификатор кодека : A_AC3
    Продолжительность : 1 ч. 50 м.
    Вид битрейта : Постоянный
    Битрейт : 448 Кбит/сек
    Каналы : 6 каналов
    Расположение каналов : Front: L C R, Side: L R, LFE
    Частота : 48, 0 КГц
    Битовая глубина : 16 бит
    Метод сжатия : С потерями
    Размер потока : 354 Мбайт (16%)
    Default : Да
    Forced : Нет

    Скриншоты:


    Онлайн видео Последнее соблазнение


    Размер скачиваемого торрента: 2.18 GB (2343031079 Bytes)

    Последнее соблазнение/The Last Seduction (1994) BDRip-AVC | Р
    загрузка...
    Рейтинг →
     (голосов: 1, оценка 4/5, голосовать можно 1 раз )

    Другие торренты по теме:

  • Последнее соблазнение / The Last Seduction (1994) DVDRip-AVC от Temperest скачать через торрент бесплатно
  • Последнее соблазнение / The Last Seduction (1994) BDRip-AVC | P, P2 скачать через торрент бесплатно


    • Комментарии (0):

      Информация

      Информация

        Посетители, находящиеся в группе Гости, не могут оставлять комментарии в данной новости.

        ↓ Меню



        ↓ Опрос

        А Вы добавили сайт в закладки?
        Да
        Не


        Top 10 за неделю (Фильмы)