.
Авторизация | Регистрация
» » Прощай, Америка! (1951) DVDRip от New-Team скачать торрент бесплатно




    Прощай, Америка! (1951) DVDRip от New-Team скачать торрент бесплатно

    Опубликовал: Админ | Дата: 7-07-2016, 13:53 | Просмотров: 68



    Снималось в: СССР
    Создали в: Мосфильм
    Категория жанра: политический памфлет
    Создали в: 1951
    Время просмотра: 01: 09: 55
    Перевод текста: Не требуется
    Субтитры подготовлены: нет
    Оригинальная аудиодорожка: русский
    Главный режиссер: Александр Довженко, Юлия Солнцева

    Актеры

    Лилия Гриценко, Николай Гриценко, Александр Полинский, Григорий Кириллов, Вячеслав Гостинский, Никита Кондратьев, Юрий Любимов, Янис Осис, Людмила Шагалова, Григорий Шпигель, Вера Орлова...
    Полный список актёров
    Описание:
    В основе сценария последней незаконченной режиссерской работы Александра Петровича Довженко - книга 1949 года американской журналистки Аннабеллы Бюкар Правда об американских дипломатах, разоблачающая нравы в американском посольстве в Москве.



    Источник: DVD5 R5
    Качество фильма видео: DVDRip
    Тип видео видео: AVI
    Информация о видео: 704x528 (4: 3), 25 fps, XviD ~ 2030 kbps avg, 0.218 bit/pixel
    Информация о звуке: 48 kHz, Dolby Digital AC3 2.0, 192 kbps
    Раздача от:
    MediaInfo

    Общее
    Полное имя : Proshhay, Amerika!1951.DVDRip_New-team_by_AVP_Studio.avi
    Формат : AVI
    Формат/Информация : Audio Video Interleave
    Размер файла : 1, 09 Гбайт
    Продолжительность : 1 ч. 9 м.
    Общий поток : 2231 Кбит/сек
    Программа кодирования : VirtualDubMod 1.5.10.3 | www.virtualdub-fr.org || (build 2550/release)
    Библиотека кодирования : VirtualDubMod build 2550/release
    Видео
    Идентификатор : 0
    Формат : MPEG-4 Visual
    Профиль формата : Advanced Simple@L5
    Параметр BVOP формата : 1
    Параметр QPel формата : Нет
    Параметр GMC формата : Без точки перехода
    Параметр матрицы формата : Выборочная
    Идентификатор кодека : XVID
    Идентификатор кодека/Подсказка : XviD
    Продолжительность : 1 ч. 9 м.
    Битрейт : 2030 Кбит/сек
    Ширина : 704 пикселя
    Высота : 528 пикселей
    Соотношение сторон : 4: 3
    Частота кадров : 25, 000 кадров/сек
    Цветовое пространство : YUV
    Субдискретизация насыщенности : 4: 2: 0
    Битовая глубина : 8 бит
    Тип развёртки : Прогрессивная
    Метод сжатия : С потерями
    Бит/(Пиксели*Кадры) : 0.218
    Размер потока : 1015 Мбайт (91%)
    Библиотека кодирования : XviD 1.2.1 (UTC 2008-12-04)
    Аудио
    Идентификатор : 1
    Формат : AC-3
    Формат/Информация : Audio Coding 3
    Расширение режима : CM (complete main)
    Параметр Endianness формата : Big
    Идентификатор кодека : 2000
    Продолжительность : 1 ч. 9 м.
    Вид битрейта : Постоянный
    Битрейт : 192 Кбит/сек
    Каналы : 2 канала
    Расположение каналов : Front: L R
    Частота : 48, 0 КГц
    Метод сжатия : С потерями
    Размер потока : 96, 0 Мбайт (9%)
    Выравнивание : Разделение по промежуткам
    Продолжительность промежутка : 40 мс. (1, 00 видеокадр)
    Время предзагрузки промежутка : 500 мс

    Скриншоты



    Залил: AVPStudio

    Онлайн видео Прощай, Америка! (1951) DVDRip от New


    Размер скачиваемого торрента: 1.09 GB (1170137088 Bytes)

    Прощай, Америка! (1951) DVDRip от New-Team
    загрузка...
    Рейтинг →
     (голосов: 1, оценка 3/5, голосовать можно 1 раз )

    Другие торренты по теме:



      Комментарии (0):

      Информация

      Информация

        Посетители, находящиеся в группе Гости, не могут оставлять комментарии в данной новости.

        ↓ Меню



        ↓ Опрос

        А Вы добавили сайт в закладки?
        Да
        Не


        Top 10 за неделю (Фильмы)