.
Авторизация | Регистрация
Хочешь лучшие торренты? Добавь свой email!
Добавить
» » Трансформеры: Месть падших / Transformers: Revenge of the Fallen (2009) BDRip 720p от HQ-ViDEO | D | Лицензия торрент скачать бесплатно




    Трансформеры: Месть падших / Transformers: Revenge of the Fallen (2009) BDRip 720p от HQ-ViDEO | D | Лицензия торрент скачать бесплатно

    Опубликовал: Админ | Дата: 7-07-2016, 13:54 | Просмотров: 82



    Трансформеры: Месть падших/Transformers: Revenge of the Fallen (2009) BDRip 720p
    Релиз от HQ-ViDEO

    Детально о кино
    Русское название: Трансформеры: Месть падших
    Русское название в мировом прокате: Transformers: Revenge of the Fallen
    Создали в: 2009
    Категория жанра: фантастика, боевик, приключения
    Главный режиссер: Майкл Бэй /Michael Bay/

    Актеры
    Шайа ЛаБаф /Shia LaBeouf/, Меган Фокс /Megan Fox/ , Джош Дюамель /Josh Duhamel/, Тайриз Гибсон /Tyrese Gibson/, Джон Туртурро /John Turturro/, Рамон Родригез /Ramon Rodriguez/, Кевин Данн /Kevin Dunn/, Джули Уайт /Julie White/, Изабель Лукас/Isabel Lucas/, Джон Бенжамин Хикки /John Benjamin Hickey/...

    Сюжет фильма

    Прошло два года с тех пор, как юный Сэм Уитвикки спас Вселенную, предотвратив глобальную битву между враждующими воинственными расами инопланетных роботов. Несмотря на свои героические подвиги, Сэм остается обычным подростком с обычными проблемами — поступлением в колледж и родителями. Разумеется, отъезд будет тяжело воспринят лучшим другом, роботом — телохранителем Бамблби.
    Сэм изо всех сил пытается забыть о конфликте в Мишн Сити и вернуться к нормальной жизни. Однако битва между Автоботами и Десептиконами, несмотря на гриф полной секретности, многое изменила…

    Снималось в: США
    Время просмотра: 02: 29: 53
    Перевод текста: Русский дублированный (Лицензия) + Оригинальная, английская дорожка (Отдельно)
    Файл
    Кодек для видео: MKV, H.264
    Качество фильма: BDRip 720p (Source: Blu-ray Disc)
    Информация о видео: 6779 kbps; 0.415 bit/pixel; 1280 x 532; 2.40: 1; 23.976 fps
    Информация о звуке #1: AC3 Dolby Digital; 640.00 kbps, 6 Ch - DUB
    Информация о звуке #2: AC3 Dolby Digital; 640.00 kbps, 6 Ch - ENG (отдельно/скачать с Яндекс Диск)
    Субтитры: Русские, Английские.
    Субтитры: Русские (полные (2 вида), форсированные), Украинские (полные, форсированные), Английские.(Отдельно)
    Размер скачиваемого торрента: 7.92 GB
    SAMPLE/скачать с Яндекс Диск
    MediaInfo

    General
    Complete name : Transformery.Mest.Padshih.2009.RUS.BDRip.720p.h264.AC3.-HQ-ViDEO.mkv
    Format : Matroska
    File size : 7.92 GiB
    Duration : 2h 29mn
    Overall bit rate : 7 569 Kbps
    Movie name : Transformers: Revenge of the Fallen (2009)
    Encoded date : UTC 2010-12-15 13: 26: 32
    Writing application : mkvmerge v3.3.0 (;Language;) built on Mar 24 2010 14: 59: 24
    Writing library : libebml v0.8.0 + libmatroska v0.9.0
    Video
    ID : 1
    Format : AVC
    Format/Info : Advanced Video Codec
    Format profile : High@L4.1
    Format settings, CABAC : Yes
    Format settings, ReFrames : 6 frames
    Muxing mode : Container profile=Unknown@4.1
    Codec ID : V_MPEG4/ISO/AVC
    Duration : 2h 29mn
    Bit rate : 6 779 Kbps
    Width : 1 280 pixels
    Height : 532 pixels
    Display aspect ratio : 2.40: 1
    Frame rate : 23.976 fps
    Resolution : 8 bits
    Colorimetry : 4: 2: 0
    Scan type : Progressive
    Bits/(Pixel*Frame) : 0.415
    Stream size : 7.09 GiB (89%)
    Title : Encoded by GYN
    Audio
    ID : 2
    Format : AC-3
    Format/Info : Audio Coding 3
    Codec ID : A_AC3
    Duration : 2h 29mn
    Bit rate mode : Constant
    Bit rate : 640 Kbps
    Channel(s) : 6 channels
    Channel positions : Front: L C R, Surround: L R, LFE
    Sampling rate : 48.0 KHz
    Stream size : 686 MiB (8%)
    Title : DUB
    Language : Russian
    Text #1
    ID : 3
    Format : UTF-8
    Codec ID : S_TEXT/UTF8
    Codec ID/Info : UTF-8 Plain Text
    Language : Russian
    Text #2
    ID : 4
    Format : UTF-8
    Codec ID : S_TEXT/UTF8
    Codec ID/Info : UTF-8 Plain Text
    Language : English





    Релиз подготовил: HQ-ViDEO
    Автор рипа: GYN

    Онлайн видео Трансформеры: Месть падших


    Размер скачиваемого торрента: 7.92 GB (8508948860 Bytes)

    Трансформеры: Месть падших/Transformers: Revenge of the Fallen (2009) BDRip 720p от HQ-ViDEO | D | Лицензия
    загрузка...
    Рейтинг →
     (голосов: 1, оценка 4/5, голосовать можно 1 раз )

    Другие торренты по теме:

  • Трансформеры: Месть падших / Transformers: Revenge of the Fallen (2009) BDRip 720p | 60 FPS
  • Трансформеры: Месть падших / Transformers: Revenge of the Fallen (2009) HDRip от Youtracker | КПК скачать через торрент бесплатно
  • Трансформеры: Месть падших / Transformers: Revenge of the Fallen (2009) BDRip 720p от Leonardo and Scarabey скачать через торрент бесплатно
  • Трансформеры: Месть падших / Transformers: Revenge of the Fallen (2009) BDRip-AVC от Leo.pard | D скачать через торрент бесплатно
  • Трансформеры: Месть падших / Transformers: Revenge of the Fallen (2009) BDRip от HQCLUB скачать через торрент бесплатно
  • Трансформеры: Месть падших / Transformers: Revenge of the Fallen (2009) BDRip-AVC от ExKinoRay | IMAX | Лицензия
  • Трансформеры: Месть падших / Transformers: Revenge of the Fallen (2009) HDRip от Scarabey | IMAX Version


    • Комментарии (0):

      Информация

      Информация

        Посетители, находящиеся в группе Гости, не могут оставлять комментарии в данной новости.

        ↓ Меню



        ↓ Опрос

        А Вы добавили сайт в закладки?
        Да
        Не


        Top 10 за месяц (Фильмы)