.
Авторизация | Регистрация
Хочешь лучшие торренты? Добавь свой email!
Добавить
» » Чудеса с небес / Miracles from Heaven (2016) BDRip 1080p от ExKinoRay | iTunes торрент скачать бесплатно




    Чудеса с небес / Miracles from Heaven (2016) BDRip 1080p от ExKinoRay | iTunes торрент скачать бесплатно

    Опубликовал: Админ | Дата: 7-07-2016, 13:54 | Просмотров: 272



    Детально о кино
    Русское название: Чудеса с небес
    Русское название в мировом прокате: Miracles from Heaven
    Создали в: 2016
    Категория жанра: Драма
    Главный режиссер: Патрисия Ригген

    Актеры
    Дженнифер Гарнер, Кайли Роджерс, Мартин Хендерсон, Брайтон Шарбино, Кортни Фанслер, Куин Латифа, Брайс Зенткович, Эухенио Дербес, Келли Коллинз, Джон Кэрролл Линч

    Сюжет фильма

    Удивительная история, в которую невозможно поверить, не увидев собственными глазами. Когда кажется все потеряно, и впереди только боль и отчаяние, небеса дарят надежду тем, кто верит.

    Снималось в: США
    Киностудия: Affirm Films, TriStar Pictures
    Время просмотра: 01: 49: 15
    Перевод текста: Профессиональный многоголосый (закадровый) | iTunes
    Файл
    Кодек для видео: MPEG-4
    Качество фильма: BDRip 1080p
    Информация о видео: 1920x1038, 14.2 Mbit/s, 23.976 fps
    Информация о звуке:
    Информация о звуке #01: 48 kHz, AC3, 5.1, 384 Kbps | Профессиональный многоголосый (закадровый), iTunes |
    Информация о звуке #02: 48 kHz, DTS, 5.1, 1510 kbps | Оригинал |
    Субтитры: Русские, английские
    Релиз подготовил: Автор релиза:

    MI
    General
    Unique ID : 207679188526875966477165153489056625021 (0x9C3D8E8A8290FAA9801F9E7518B6F17D)
    Complete name : F: VideoMiracles.from.Heaven.2016.BDRip.1080p.ExKinoRay.mkv
    Format : Matroska
    Format version : Version 4/Version 2
    File size : 12.3 GiB
    Duration : 1h 49mn
    Overall bit rate : 16.1 Mbps
    Movie name : Miracles.from.Heaven.2016.BDRip.1080p.ExKinoRay
    Encoded date : UTC 2016-07-06 06: 44: 03
    Writing application : mkvmerge v8.3.0 (;Over the Horizon;) 64bit
    Writing library : libebml v1.3.1 + libmatroska v1.4.2
    Video
    ID : 1
    Format : AVC
    Format/Info : Advanced Video Codec
    Format profile : High@L4.1
    Format settings, CABAC : Yes
    Format settings, ReFrames : 4 frames
    Codec ID : V_MPEG4/ISO/AVC
    Duration : 1h 49mn
    Bit rate : 14.2 Mbps
    Width : 1 920 pixels
    Height : 1 038 pixels
    Display aspect ratio : 1.85: 1
    Frame rate mode : Constant
    Frame rate : 23.976 (24000/1001) fps
    Color space : YUV
    Chroma subsampling : 4: 2: 0
    Bit depth : 8 bits
    Scan type : Progressive
    Bits/(Pixel*Frame) : 0.298
    Stream size : 10.8 GiB (88%)
    Writing library : x264 core 148 r2665+53 6629127 t_mod_Custom 8-bit@all X86_64
    Encoding settings : cabac=1/ref=4/deblock=1: -3: -3/analyse=0x3: 0x133/me=umh/subme=11/psy=1/fade_compensate=0.00/psy_rd=1.00: 0.00/mixed_ref=1/me_range=32/chroma_me=1/trellis=2/8x8dct=1/cqm=0/deadzone=21, 11/fast_pskip=0/chroma_qp_offset=-2/threads=16/lookahead_threads=2/sliced_threads=0/nr=0/decimate=0/interlaced=0/bluray_compat=0/constrained_intra=0/fgo=0/bframes=9/b_pyramid=2/b_adapt=2/b_bias=0/direct=3/weightb=1/open_gop=0/weightp=2/keyint=250/keyint_min=23/scenecut=40/intra_refresh=0/rc_lookahead=150/rc=crf/mbtree=0/crf=17.2000/qcomp=0.60/qpmin=0: 0: 0/qpmax=69: 69: 69/qpstep=4/vbv_maxrate=50000/vbv_bufsize=62500/crf_max=0.0/nal_hrd=none/filler=0/ip_ratio=1.30/pb_ratio=1.20/aq=3: 0.80/aq-sensitivity=10.00/aq-factor=1.00: 1.00: 1.00/aq2=0/aq3=0
    Language : English
    Default : Yes
    Forced : No
    Color range : Limited
    Matrix coefficients : BT.709
    Audio #1
    ID : 2
    Format : AC-3
    Format/Info : Audio Coding 3
    Mode extension : CM (complete main)
    Format settings, Endianness : Big
    Codec ID : A_AC3
    Duration : 1h 49mn
    Bit rate mode : Constant
    Bit rate : 384 Kbps
    Channel(s) : 6 channels
    Channel positions : Front: L C R, Side: L R, LFE
    Sampling rate : 48.0 KHz
    Frame rate : 31.250 fps (1536 spf)
    Compression mode : Lossy
    Stream size : 299 MiB (2%)
    Title : MVO iTunes
    Language : Russian
    Default : Yes
    Forced : No
    Audio #2
    ID : 3
    Format : DTS
    Format/Info : Digital Theater Systems
    Mode : 16
    Format settings, Endianness : Big
    Codec ID : A_DTS
    Duration : 1h 49mn
    Bit rate mode : Constant
    Bit rate : 1 509 Kbps
    Channel(s) : 6 channels
    Channel positions : Front: L C R, Side: L R, LFE
    Sampling rate : 48.0 KHz
    Frame rate : 93.750 fps (512 spf)
    Bit depth : 24 bits
    Compression mode : Lossy
    Stream size : 1.15 GiB (9%)
    Title : Original
    Language : English
    Default : No
    Forced : No
    Text #1
    ID : 4
    Format : UTF-8
    Codec ID : S_TEXT/UTF8
    Codec ID/Info : UTF-8 Plain Text
    Duration : 1h 43mn
    Bit rate : 111 bps
    Count of elements : 1725
    Stream size : 85.1 KiB (0%)
    Title : Full
    Language : Russian
    Default : No
    Forced : No
    Text #2
    ID : 5
    Format : UTF-8
    Codec ID : S_TEXT/UTF8
    Codec ID/Info : UTF-8 Plain Text
    Duration : 1h 42mn
    Bit rate : 66 bps
    Count of elements : 1694
    Stream size : 50.4 KiB (0%)
    Title : Full
    Language : English
    Default : No
    Forced : No
    Text #3
    ID : 6
    Format : UTF-8
    Codec ID : S_TEXT/UTF8
    Codec ID/Info : UTF-8 Plain Text
    Duration : 1h 43mn
    Bit rate : 75 bps
    Count of elements : 1869
    Stream size : 57.5 KiB (0%)
    Title : SDH
    Language : English
    Default : No
    Forced : No
    Menu
    00: 00: 00.000 : en: Chapter 1
    00: 09: 46.336 : en: Chapter 2
    00: 16: 54.305 : en: Chapter 3
    00: 25: 52.092 : en: Chapter 4
    00: 32: 45.213 : en: Chapter 5
    00: 37: 26.202 : en: Chapter 6
    00: 45: 49.538 : en: Chapter 7
    00: 53: 31.458 : en: Chapter 8
    00: 58: 18.245 : en: Chapter 9
    01: 07: 21.162 : en: Chapter 10
    01: 13: 46.714 : en: Chapter 11
    01: 19: 51.036 : en: Chapter 12
    01: 26: 40.237 : en: Chapter 13
    01: 33: 12.128 : en: Chapter 14
    01: 40: 24.060 : en: Chapter 15
    01: 46: 18.872 : en: Chapter 16
    Скриншоты


    Онлайн видео Чудеса с небес


    Размер скачиваемого торрента: 12.27 GB (13178628263 Bytes)

    Чудеса с небес/Miracles from Heaven (2016) BDRip 1080p от ExKinoRay | iTunes
    загрузка...
    Рейтинг →
     (голосов: 1, оценка 5/5, голосовать можно 1 раз )

    Другие торренты по теме:

  • Чудеса с небес / Miracles from Heaven (2016) WEB-DLRip | iTunes
  • Чудеса с небес / Miracles from Heaven (2016) WEB-DLRip от Scarabey | iTunes
  • Чудеса с небес / Miracles from Heaven (2016) BDRip от MegaPeer | iTunes
  • Чудеса с небес / Miracles from Heaven (2016) BDRip 720p HEVC от qusi555 | iTunes
  • Чудеса с небес / Miracles from Heaven (2016) BDRip 720p от AleksSin | iTunes
  • Чудеса с небес / Miracles from Heaven (2016) HDRip от Шкипер | P


    • Комментарии (0):

      Информация

      Информация

        Посетители, находящиеся в группе Гости, не могут оставлять комментарии в данной новости.

        ↓ Меню



        ↓ Опрос

        А Вы добавили сайт в закладки?
        Да
        Не


        Top 10 за месяц (Фильмы)