.
Авторизация | Регистрация
Хочешь лучшие торренты? Добавь свой email!
Добавить
» » Непримиримые противоречия / Irreconcilable Differences (1984) BDRip от New-Team | A торрент скачать бесплатно




    Непримиримые противоречия / Irreconcilable Differences (1984) BDRip от New-Team | A торрент скачать бесплатно

    Опубликовал: Админ | Дата: 7-07-2016, 13:54 | Просмотров: 74



    Раздача является материалом, специально подготовленным и переведенным для new-team.org


    Снималось в: США
    Создали в: Hemdale Films, Lantana, Warner Bros. Pictures
    Категория жанра: драма, мелодрама, комедия
    Создали в: 1984
    Время просмотра: 01: 53: 48
    Перевод текста: Авторский (одноголосый) Антон Алексеев
    Субтитры подготовлены: нет
    Оригинальная аудиодорожка: нет
    Главный режиссер: Чарльз Шайер/Charles Shyer

    Актеры

    Райан О’Нил, Шелли Лонг, Дрю Бэрримор, Сэм Уонамейкер, Аллен Гарфилд, Шэрон Стоун, Ким Марринер, Венди Гордон, Кен Гэйл, Дебора Коуди...
    Описание:
    Супруги Альберт и Люси собираются развестись и начинают раздел имущества. Это приводит в возмущение их десятилетнюю дочь Кейси, которая вскоре подает на них в суд с целью лишить своих родителей родительских прав...




    Источник: BDRemux 1080p
    Качество фильма: BDRip
    Тип видео: AVI
    Информация о видео: 624x352 (16: 9), 23.976 fps, XviD ~ 778 kbps avg, 0.148 bit/pixel
    Информация о звуке: 48 kHz, MP3, 1 ch, 128 kbps
    Дополнительно: На оригинальную дорожку наложен чистый голос перевода Антона Алексеева.
    Раздача от:
    MediaInfo

    Общее
    Полное имя : Neprimirimye.protivorechiya.1984.BDRip-745_New-team_by_AVP_Studio.avi
    Формат : AVI
    Формат/Информация : Audio Video Interleave
    Размер файла : 745 Мбайт
    Продолжительность : 1 ч. 53 м.
    Общий поток : 915 Кбит/сек
    Программа кодирования : VirtualDubMod 1.5.10.3 | www.virtualdub-fr.org || (build 2550/release)
    Библиотека кодирования : VirtualDubMod build 2550/release
    Видео
    Идентификатор : 0
    Формат : MPEG-4 Visual
    Профиль формата : Advanced Simple@L5
    Параметр BVOP формата : 1
    Параметр QPel формата : Нет
    Параметр GMC формата : Без точки перехода
    Параметр матрицы формата : Выборочная
    Идентификатор кодека : XVID
    Идентификатор кодека/Подсказка : XviD
    Продолжительность : 1 ч. 53 м.
    Битрейт : 778 Кбит/сек
    Ширина : 624 пикселя
    Высота : 352 пикселя
    Соотношение сторон : 16: 9
    Частота кадров : 23, 976 кадра/сек
    Цветовое пространство : YUV
    Субдискретизация насыщенности : 4: 2: 0
    Битовая глубина : 8 бит
    Тип развёртки : Прогрессивная
    Метод сжатия : С потерями
    Бит/(Пиксели*Кадры) : 0.148
    Размер потока : 633 Мбайт (85%)
    Библиотека кодирования : XviD 73
    Аудио
    Идентификатор : 1
    Формат : MPEG Audio
    Версия формата : Version 1
    Профиль формата : Layer 3
    Идентификатор кодека : 55
    Идентификатор кодека/Подсказка : MP3
    Продолжительность : 1 ч. 53 м.
    Вид битрейта : Постоянный
    Битрейт : 128 Кбит/сек
    Каналы : 1 канал
    Частота : 48, 0 КГц
    Метод сжатия : С потерями
    Размер потока : 104 Мбайт (14%)
    Выравнивание : Соединение по промежуткам
    Продолжительность промежутка : 42 мс. (1, 00 видеокадр)
    Время предзагрузки промежутка : 504 мс.
    Библиотека кодирования : LAME3.99r
    Залил: AVPStudio

    Онлайн видео Непримиримые противоречия


    Размер скачиваемого торрента: 744.66 MB (780834816 Bytes)


    Непримиримые противоречия/Irreconcilable Differences (1984) BDRip от New-Team | A
    загрузка...
    Рейтинг →
     (голосов: 1, оценка 5/5, голосовать можно 1 раз )

    Другие торренты по теме:

  • Непримиримые противоречия / Irreconcilable Differences (1984) BDRip от New-Team | A
  • Непримиримые противоречия / Irreconcilable Differences (1984) BDRip-AVC | A
  • Непримиримые противоречия / Irreconcilable Differences (1984) BDRip от New-Team | A
  • Непримиримые противоречия / Irreconcilable Differences (1984) BDRip 1080p от New-Team | A
  • Непримиримые противоречия / Irreconcilable Differences (1984) BDRip 1080p от New-Team | A
  • Непримиримые противоречия / Irreconcilable Differences (1984) BDRip 720p от New-Team | A


    • Комментарии (0):

      Информация

      Информация

        Посетители, находящиеся в группе Гости, не могут оставлять комментарии в данной новости.

        ↓ Меню



        ↓ Опрос

        А Вы добавили сайт в закладки?
        Да
        Не


        Top 10 за месяц (Фильмы)