.
Авторизация | Регистрация
» » Костёр бессмертия (1955) VHSRip- от New-Team скачать торрент бесплатно




    Костёр бессмертия (1955) VHSRip- от New-Team скачать торрент бесплатно

    Опубликовал: Админ | Дата: 8-07-2016, 14:36 | Просмотров: 50



    Снималось в: СССР
    Создали в: Киевская студия художественных фильмов
    Категория жанра: драма, биография, история
    Создали в: 1955
    Время просмотра: 01: 37: 28
    Перевод текста: Не требуется
    Субтитры подготовлены: нет
    Оригинальная аудиодорожка: русский
    Главный режиссер: Абрам Народицкий

    Актеры

    Владимир Дружников, Давид Волосов, А. Гируцкая, Олег Жаков, Александр Мгебров, Юрий Кротенко, Виктор Халатов, Эмилия Мильтон, Владимир Таскин, Александр Розанов (III), Дмитрий Милютенко, Юрий Лавров, Георгий Бударов...
    Полный список актёров
    Описание:
    О жизни и деятельности итальянского философа-материалиста эпохи Возрождения Джордано Бруно (1548—1600).



    Источник: S-VHS
    Качество фильма видео: VHSRip
    Тип видео видео: AVI
    Информация о видео: 576x432 (4: 3), 25 fps, XviD ~ 932 kbps avg, 0.150 bit/pixel
    Информация о звуке: 48 kHz, MP3 2.0, 128 kbps
    Раздача от:
    MediaInfo

    Общее
    Полное имя : Koster.bessmertiya.1955.VHSRip-745_New-team_by_AVP_Studio.avi
    Формат : AVI
    Формат/Информация : Audio Video Interleave
    Размер файла : 746 Мбайт
    Продолжительность : 1 ч. 37 м.
    Общий поток : 1069 Кбит/сек
    Программа кодирования : VirtualDubMod 1.5.10.3 | www.virtualdub-fr.org || (build 2550/release)
    Библиотека кодирования : VirtualDubMod build 2550/release
    Видео
    Идентификатор : 0
    Формат : MPEG-4 Visual
    Профиль формата : Advanced Simple@L5
    Параметр BVOP формата : 1
    Параметр QPel формата : Нет
    Параметр GMC формата : Без точки перехода
    Параметр матрицы формата : Выборочная
    Идентификатор кодека : XVID
    Идентификатор кодека/Подсказка : XviD
    Продолжительность : 1 ч. 37 м.
    Битрейт : 932 Кбит/сек
    Ширина : 576 пикселей
    Высота : 432 пикселя
    Соотношение сторон : 4: 3
    Частота кадров : 25, 000 кадров/сек
    Цветовое пространство : YUV
    Субдискретизация насыщенности : 4: 2: 0
    Битовая глубина : 8 бит
    Тип развёртки : Прогрессивная
    Метод сжатия : С потерями
    Бит/(Пиксели*Кадры) : 0.150
    Размер потока : 650 Мбайт (87%)
    Библиотека кодирования : XviD 1.2.1 (UTC 2008-12-04)
    Аудио
    Идентификатор : 1
    Формат : MPEG Audio
    Версия формата : Version 1
    Профиль формата : Layer 3
    Идентификатор кодека : 55
    Идентификатор кодека/Подсказка : MP3
    Продолжительность : 1 ч. 37 м.
    Вид битрейта : Постоянный
    Битрейт : 128 Кбит/сек
    Каналы : 2 канала
    Частота : 48, 0 КГц
    Метод сжатия : С потерями
    Размер потока : 89, 2 Мбайт (12%)
    Выравнивание : Соединение по промежуткам
    Продолжительность промежутка : 40 мс. (1, 00 видеокадр)
    Время предзагрузки промежутка : 504 мс.
    Библиотека кодирования : LAME3.99r
    Залил: AVPStudio

    Онлайн видео Костёр бессмертия (1955) VHSRip


    Размер скачиваемого торрента: 745.58 MB (781797376 Bytes)


    Костёр бессмертия (1955) VHSRip- от New-Team
    загрузка...
    Рейтинг →
     (голосов: 1, оценка 4/5, голосовать можно 1 раз )

    Другие торренты по теме:

  • Костёр бессмертия (1955) VHSRip- от New-Team скачать торрент бесплатно


    • Комментарии (0):

      Информация

      Информация

        Посетители, находящиеся в группе Гости, не могут оставлять комментарии в данной новости.

        ↓ Меню



        ↓ Опрос

        А Вы добавили сайт в закладки?
        Да
        Не


        Top 10 за неделю (Фильмы)