.
Авторизация | Регистрация
» » Защитник / Concussion (2015) BDRip 1080p от ExKinoRay | Лицензия скачать торрент бесплатно




    Защитник / Concussion (2015) BDRip 1080p от ExKinoRay | Лицензия скачать торрент бесплатно

    Опубликовал: Админ | Дата: 9-07-2016, 18:04 | Просмотров: 51



    Детально о кино
    Русское название: Защитник
    Русское название в мировом прокате: Concussion
    Создали в: 2015
    Категория жанра: Драма, спорт
    Главный режиссер: Питер Ландесман

    Актеры
    Уилл Смит, Алек Болдуин, Альберт Брукс, Гугу Эмбата-Ро, Дэвид Морс, Арлисс Ховард, Майк О’Мэлли, Эдди Марсан, Хилл Харпер, Адевале Акиннуойе-Агбадже, Стивен Мойер, Ричард Т. Джонс, Пол Райзер, Люк Уилсон, Сара Линдсей, Мэттью Уиллиг, Битси Таллоч, Кевин Джиггеттс, Гэри Граббс, Рэнди Ковиц

    Сюжет фильма

    Америка потрясена чередой неожиданных и необъяснимых смертей знаменитых спортсменов. Разгадать загадку предстоит талантливому молодому нейрохирургу, но, как оказалось, не все готовы услышать жестокую правду…

    Снималось в: Великобритания, Австралия, США
    Киностудия: Cantillon Company, The, LStar Capital, Scott Free Productions, Shuman Company, The, Village Roadshow Pictures
    Время просмотра: 02: 02: 49
    Перевод текста: Дублированный | Лицензия Blu-Ray CEE
    Файл
    Кодек для видео: MPEG-4
    Качество фильма: BDRip 1080p
    Информация о видео: 1920x804, 12.9 Mbit/s, 23.976 fps
    Информация о звуке:
    Информация о звуке #01: 48 kHz, AC3, 5.1, 640 Kbps | Дублированный, лицензия Blu-Ray CEE |
    Информация о звуке #02: 48 kHz, DTS, 5.1, 1510 kbps | Оригинал |
    Субтитры: Русские, украинские, английские
    Релиз подготовил: Автор релиза:

    MI
    General
    Unique ID : 247402204671282006434433586560500452381 (0xBA1FEE721730932D97C71A19674B4C1D)
    Complete name : F: VideoConcussion.2015.BDRip.1080p.ExKinoRay.mkv
    Format : Matroska
    Format version : Version 4/Version 2
    File size : 12.9 GiB
    Duration : 2h 2mn
    Overall bit rate : 15.0 Mbps
    Movie name : Concussion.2015.BDRip.1080p.ExKinoRay
    Encoded date : UTC 2016-07-08 02: 55: 10
    Writing application : mkvmerge v8.3.0 (;Over the Horizon;) 64bit
    Writing library : libebml v1.3.1 + libmatroska v1.4.2
    Video
    ID : 1
    Format : AVC
    Format/Info : Advanced Video Codec
    Format profile : High@L4.1
    Format settings, CABAC : Yes
    Format settings, ReFrames : 5 frames
    Codec ID : V_MPEG4/ISO/AVC
    Duration : 2h 2mn
    Bit rate : 12.9 Mbps
    Width : 1 920 pixels
    Height : 804 pixels
    Display aspect ratio : 2.40: 1
    Frame rate mode : Constant
    Frame rate : 23.976 (24000/1001) fps
    Color space : YUV
    Chroma subsampling : 4: 2: 0
    Bit depth : 8 bits
    Scan type : Progressive
    Bits/(Pixel*Frame) : 0.348
    Stream size : 11.1 GiB (86%)
    Writing library : x264 core 146 r2538 121396c
    Encoding settings : cabac=1/ref=5/deblock=1: -3: -3/analyse=0x3: 0x133/me=umh/subme=11/psy=1/psy_rd=1.00: 0.00/mixed_ref=1/me_range=32/chroma_me=1/trellis=2/8x8dct=1/cqm=0/deadzone=21, 11/fast_pskip=0/chroma_qp_offset=-2/threads=48/lookahead_threads=6/sliced_threads=0/nr=0/decimate=0/interlaced=0/bluray_compat=0/constrained_intra=0/bframes=10/b_pyramid=2/b_adapt=2/b_bias=0/direct=3/weightb=1/open_gop=0/weightp=2/keyint=240/keyint_min=23/scenecut=40/intra_refresh=0/rc_lookahead=150/rc=crf/mbtree=0/crf=15.5/qcomp=0.60/qpmin=0/qpmax=69/qpstep=4/vbv_maxrate=62500/vbv_bufsize=78125/crf_max=0.0/nal_hrd=none/filler=0/ip_ratio=1.40/pb_ratio=1.30/aq=1: 0.80
    Language : English
    Default : Yes
    Forced : No
    Audio #1
    ID : 2
    Format : AC-3
    Format/Info : Audio Coding 3
    Mode extension : CM (complete main)
    Format settings, Endianness : Big
    Codec ID : A_AC3
    Duration : 2h 2mn
    Bit rate mode : Constant
    Bit rate : 640 Kbps
    Channel(s) : 6 channels
    Channel positions : Front: L C R, Side: L R, LFE
    Sampling rate : 48.0 KHz
    Frame rate : 31.250 fps (1536 spf)
    Compression mode : Lossy
    Stream size : 562 MiB (4%)
    Title : DUB License Blu-ray CEE
    Language : Russian
    Default : Yes
    Forced : No
    Audio #2
    ID : 3
    Format : DTS
    Format/Info : Digital Theater Systems
    Mode : 16
    Format settings, Endianness : Big
    Codec ID : A_DTS
    Duration : 2h 2mn
    Bit rate mode : Constant
    Bit rate : 1 509 Kbps
    Channel(s) : 6 channels
    Channel positions : Front: L C R, Side: L R, LFE
    Sampling rate : 48.0 KHz
    Frame rate : 93.750 fps (512 spf)
    Bit depth : 24 bits
    Compression mode : Lossy
    Stream size : 1.29 GiB (10%)
    Title : Original
    Language : English
    Default : No
    Forced : No
    Text #1
    ID : 4
    Format : UTF-8
    Codec ID : S_TEXT/UTF8
    Codec ID/Info : UTF-8 Plain Text
    Duration : 1h 56mn
    Bit rate : 1 bps
    Count of elements : 20
    Stream size : 1.56 KiB (0%)
    Title : Forced iTunes
    Language : Russian
    Default : Yes
    Forced : No
    Text #2
    ID : 5
    Format : UTF-8
    Codec ID : S_TEXT/UTF8
    Codec ID/Info : UTF-8 Plain Text
    Duration : 1h 57mn
    Bit rate : 96 bps
    Count of elements : 1383
    Stream size : 83.4 KiB (0%)
    Title : Full iTunes
    Language : Russian
    Default : No
    Forced : No
    Text #3
    ID : 6
    Format : UTF-8
    Codec ID : S_TEXT/UTF8
    Codec ID/Info : UTF-8 Plain Text
    Duration : 2h 2mn
    Bit rate : 87 bps
    Count of elements : 1381
    Stream size : 78.4 KiB (0%)
    Title : Full iTunes
    Language : Ukrainian
    Default : No
    Forced : No
    Text #4
    ID : 7
    Format : UTF-8
    Codec ID : S_TEXT/UTF8
    Codec ID/Info : UTF-8 Plain Text
    Duration : 1h 57mn
    Bit rate : 56 bps
    Count of elements : 1466
    Stream size : 48.8 KiB (0%)
    Title : Full
    Language : English
    Default : No
    Forced : No
    Text #5
    ID : 8
    Format : UTF-8
    Codec ID : S_TEXT/UTF8
    Codec ID/Info : UTF-8 Plain Text
    Duration : 1h 57mn
    Bit rate : 53 bps
    Count of elements : 1322
    Stream size : 46.0 KiB (0%)
    Title : SDH
    Language : English
    Default : No
    Forced : No
    Text #6
    ID : 9
    Format : UTF-8
    Codec ID : S_TEXT/UTF8
    Codec ID/Info : UTF-8 Plain Text
    Duration : 2h 0mn
    Bit rate : 107 bps
    Count of elements : 2060
    Stream size : 94.8 KiB (0%)
    Title : Commentary
    Language : English
    Default : No
    Forced : No
    Menu
    00: 00: 00.000 : en: Chapter 1
    00: 07: 26.696 : en: Chapter 2
    00: 14: 41.631 : en: Chapter 3
    00: 21: 48.098 : en: Chapter 4
    00: 29: 36.566 : en: Chapter 5
    00: 37: 42.927 : en: Chapter 6
    00: 43: 44.539 : en: Chapter 7
    00: 51: 30.713 : en: Chapter 8
    00: 59: 35.447 : en: Chapter 9
    01: 06: 58.264 : en: Chapter 10
    01: 13: 07.508 : en: Chapter 11
    01: 22: 18.308 : en: Chapter 12
    01: 30: 34.721 : en: Chapter 13
    01: 38: 15.098 : en: Chapter 14
    01: 46: 46.942 : en: Chapter 15
    01: 53: 34.808 : en: Chapter 16
    Скриншоты


    Онлайн видео Защитник


    Размер скачиваемого торрента: 12.90 GB (13854766234 Bytes)

    Защитник/Concussion (2015) BDRip 1080p от ExKinoRay | Лицензия
    загрузка...
    Рейтинг →
     (голосов: 1, оценка 3/5, голосовать можно 1 раз )

    Другие торренты по теме:

  • Защитник / Concussion (2015) BDRip-AVC | iTunes скачать торрент бесплатно
  • Защитник / Concussion (2015) HDRip | iTunes скачать торрент бесплатно
  • Защитник / Concussion (2015) HDRip от Scarabey | iTunes скачать торрент бесплатно
  • Защитник / Concussion (2015) HDRip | iTunes скачать торрент бесплатно
  • Защитник / Concussion (2015) скачать торрент бесплатно
  • Защитник / Concussion (2015) BDRip 1080p | Лицензия скачать торрент бесплатно
  • Защитник / Concussion (2015) HDRip от MegaPeer | Лицензия скачать торрент бесплатно
  • Защитник / Concussion (2015) Blu-Ray CEE | Лицензия скачать торрент бесплатно


    • Комментарии (0):

      Информация

      Информация

        Посетители, находящиеся в группе Гости, не могут оставлять комментарии в данной новости.

        ↓ Меню



        ↓ Опрос

        А Вы добавили сайт в закладки?
        Да
        Не


        Top 10 за неделю (Фильмы)