.
Авторизация | Регистрация
» » Кловерфилд, 10 / 10 Cloverfield Lane (2016) BDRip-AVC от HELLYWOOD | Лицензия скачать торрент бесплатно




    Кловерфилд, 10 / 10 Cloverfield Lane (2016) BDRip-AVC от HELLYWOOD | Лицензия скачать торрент бесплатно

    Опубликовал: Админ | Дата: 9-07-2016, 18:04 | Просмотров: 48



    Монстры бывают разные
    Детально о кино
    Русское название: Кловерфилд, 10
    Русское название в мировом прокате: 10 Cloverfield Lane
    Создали в: 2016
    Категория жанра: Ужасы, фантастика, триллер, драма, детектив
    Главный режиссер: Дэн Трактенберг

    Актеры
    Джон Гудман, Мэри Элизабет Уинстэд, Джон Галлахер мл., Дуглас М. Гриффин, Сюзанн Крайер, Брэдли Купер, Сумали Монтано, Синди Хоган, Мат Ваиро

    Сюжет фильма

    Проснувшись после автомобильной аварии, девушка оказывается в подвале человека, утверждающего, что он спас ей жизнь от химической атаки, которая сделала мир за пределами бункера непригодным для жизни.

    Снималось в: США
    Киностудия: Paramount Pictures, Bad Robot, Spectrum Effects
    Время просмотра: 01: 43: 35
    Перевод текста: Профессиональный (полное дублирование)BD CEE
    Файл
    Качество фильма: BDRip-AVC
    Кодек для видео: MPEG-4 AVC
    Информация о видео: 1152х480 (2, 40: 1), 23, 976 fps, MPEG-4 AVC ~2117 kbps avg, 0.160 bit/pixel
    Информация о звуке: 48 kHz, AC3, 6 ch, ~448.00 kbps avg | русский |Профессиональный (полное дублирование)BD CEE
    Информация о звуке: 48 kHz, AC3, 6 ch, ~448.00 kbps avg | английский | Оригинал
    Субтитры: Русские (полные (х2) + форс.), украинские (полные + форс.), английские (Full + SDH + SDH-Colored)
    Семпл
    Инфо-файл
    Общее
    Уникальный идентификатор : 250657597311016685068387271339865007206 (0xBC92E5B1D83CEC9393B1C5D1A507E466)
    Полное имя : D: Kloverfild.10.2016.DUAL.BDRip.x264.-HELLYWOOD.mkv
    Формат : Matroska
    Версия формата : Version 4/Version 2
    Размер файла : 2, 18 Гбайт
    Продолжительность : 1 ч. 43 м.
    Общий поток : 3011 Кбит/сек
    Название фильма : 10 Cloverfield Lane (2016)
    Дата кодирования : UTC 2016-07-08 06: 53: 38
    Программа кодирования : mkvmerge v5.9.0 (;On The Loose;) built on Dec 15 2012 16: 39: 58
    Библиотека кодирования : libebml v1.3.0 + libmatroska v1.4.0
    Видео
    Идентификатор : 1
    Формат : AVC
    Формат/Информация : Advanced Video Codec
    Профиль формата : High@L4.1
    Параметр CABAC формата : Да
    Параметр ReFrames формата : 10 кадров
    Идентификатор кодека : V_MPEG4/ISO/AVC
    Продолжительность : 1 ч. 43 м.
    Битрейт : 2117 Кбит/сек
    Ширина : 1152 пикселя
    Высота : 480 пикселей
    Соотношение сторон : 2, 40: 1
    Режим частоты кадров : Постоянный
    Частота кадров : 23, 976 (24000/1001) кадра/сек
    Цветовое пространство : YUV
    Субдискретизация насыщенности : 4: 2: 0
    Битовая глубина : 8 бит
    Тип развёртки : Прогрессивная
    Бит/(Пиксели*Кадры) : 0.160
    Размер потока : 1, 49 Гбайт (68%)
    Заголовок : potroks
    Библиотека кодирования : x264 core 148 r2705M 3f5ed56
    Настройки программы : cabac=1/ref=10/deblock=1: -2: -2/analyse=0x3: 0x133/me=umh/subme=11/psy=1/psy_rd=1.00: 0.03/mixed_ref=1/me_range=48/chroma_me=1/trellis=2/8x8dct=1/cqm=0/deadzone=21, 11/fast_pskip=0/chroma_qp_offset=-3/threads=9/lookahead_threads=2/sliced_threads=0/nr=0/decimate=0/interlaced=0/bluray_compat=0/constrained_intra=0/bframes=11/b_pyramid=2/b_adapt=2/b_bias=0/direct=3/weightb=1/open_gop=0/weightp=2/keyint=240/keyint_min=23/scenecut=40/intra_refresh=0/rc_lookahead=100/rc=2pass/mbtree=0/bitrate=2117/ratetol=1.0/qcomp=0.70/qpmin=0/qpmax=69/qpstep=4/cplxblur=20.0/qblur=0.5/vbv_maxrate=50000/vbv_bufsize=60000/nal_hrd=none/filler=0/ip_ratio=1.40/pb_ratio=1.30/aq=1: 0.80
    Язык : English
    Default : Да
    Forced : Нет
    Аудио #1
    Идентификатор : 2
    Формат : AC-3
    Формат/Информация : Audio Coding 3
    Расширение режима : CM (complete main)
    Параметр Endianness формата : Big
    Идентификатор кодека : A_AC3
    Продолжительность : 1 ч. 43 м.
    Вид битрейта : Постоянный
    Битрейт : 448 Кбит/сек
    Каналы : 6 каналов
    Расположение каналов : Front: L C R, Side: L R, LFE
    Частота : 48, 0 КГц
    Частота кадров : 31, 250 кадров/сек (1536 spf)
    Метод сжатия : С потерями
    Размер потока : 332 Мбайт (15%)
    Заголовок : Dub | DD 5.1 @ 448 kbps - Blu-ray CEE
    Язык : Russian
    Default : Да
    Forced : Нет
    Аудио #2
    Идентификатор : 3
    Формат : AC-3
    Формат/Информация : Audio Coding 3
    Расширение режима : CM (complete main)
    Параметр Endianness формата : Big
    Идентификатор кодека : A_AC3
    Продолжительность : 1 ч. 43 м.
    Вид битрейта : Постоянный
    Битрейт : 448 Кбит/сек
    Каналы : 6 каналов
    Расположение каналов : Front: L C R, Side: L R, LFE
    Частота : 48, 0 КГц
    Частота кадров : 31, 250 кадров/сек (1536 spf)
    Метод сжатия : С потерями
    Размер потока : 332 Мбайт (15%)
    Заголовок : Origijal | DD 5.1 @ 448 kbps
    Язык : English
    Default : Нет
    Forced : Нет
    Текст #1
    Идентификатор : 4
    Формат : UTF-8
    Идентификатор кодека : S_TEXT/UTF8
    Идентификатор кодека/Информация : UTF-8 Plain Text
    Заголовок : Forced
    Язык : Russian
    Default : Да
    Forced : Нет
    Текст #2
    Идентификатор : 5
    Формат : UTF-8
    Идентификатор кодека : S_TEXT/UTF8
    Идентификатор кодека/Информация : UTF-8 Plain Text
    Заголовок : iTunes
    Язык : Russian
    Default : Нет
    Forced : Нет
    Текст #3
    Идентификатор : 6
    Формат : UTF-8
    Идентификатор кодека : S_TEXT/UTF8
    Идентификатор кодека/Информация : UTF-8 Plain Text
    Заголовок : Unknown
    Язык : Russian
    Default : Нет
    Forced : Нет
    Текст #4
    Идентификатор : 7
    Формат : UTF-8
    Идентификатор кодека : S_TEXT/UTF8
    Идентификатор кодека/Информация : UTF-8 Plain Text
    Заголовок : Forced
    Язык : Ukrainian
    Default : Нет
    Forced : Нет
    Текст #5
    Идентификатор : 8
    Формат : UTF-8
    Идентификатор кодека : S_TEXT/UTF8
    Идентификатор кодека/Информация : UTF-8 Plain Text
    Заголовок : Blu-ray
    Язык : Ukrainian
    Default : Нет
    Forced : Нет
    Текст #6
    Идентификатор : 9
    Формат : UTF-8
    Идентификатор кодека : S_TEXT/UTF8
    Идентификатор кодека/Информация : UTF-8 Plain Text
    Заголовок : Full
    Язык : English
    Default : Нет
    Forced : Нет
    Текст #7
    Идентификатор : 10
    Формат : UTF-8
    Идентификатор кодека : S_TEXT/UTF8
    Идентификатор кодека/Информация : UTF-8 Plain Text
    Заголовок : SDH
    Язык : English
    Default : Нет
    Forced : Нет
    Текст #8
    Идентификатор : 11
    Формат : UTF-8
    Идентификатор кодека : S_TEXT/UTF8
    Идентификатор кодека/Информация : UTF-8 Plain Text
    Заголовок : SDH-Colored
    Язык : English
    Default : Нет
    Forced : Нет
    Меню
    00: 00: 00.000 : : Chapter 01
    00: 05: 55.605 : : Chapter 02
    00: 14: 52.516 : : Chapter 03
    00: 19: 18.157 : : Chapter 04
    00: 24: 11.992 : : Chapter 05
    00: 32: 21.940 : : Chapter 06
    00: 42: 59.243 : : Chapter 07
    00: 47: 47.739 : : Chapter 08
    00: 53: 37.088 : : Chapter 09
    00: 57: 00.625 : : Chapter 10
    01: 03: 10.745 : : Chapter 11
    01: 11: 20.192 : : Chapter 12
    01: 15: 49.419 : : Chapter 13
    01: 24: 21.264 : : Chapter 14
    01: 28: 19.085 : : Chapter 15
    01: 37: 31.512 : : Chapter 16
    Скриншоты

    Релиз подготовил:
    Автор рипа: potroks

    Онлайн видео Кловерфилд, 10


    Размер скачиваемого торрента: 2.18 GB (2339058219 Bytes)

    Кловерфилд, 10/10 Cloverfield Lane (2016) BDRip-AVC от HELLYWOOD | Лицензия
    загрузка...
    Рейтинг →
     (голосов: 1, оценка 4/5, голосовать можно 1 раз )

    Другие торренты по теме:

  • Кловерфилд, 10 / 10 Cloverfield Lane (2016) CAMRip | L2 скачать торрент бесплатно
  • Кловерфилд, 10 / 10 Cloverfield Lane (2016) WEBRip 1080p | D | Line скачать торрент бесплатно
  • Кловерфилд, 10 / 10 Cloverfield Lane (2016) WEB-DLRip | Line скачать торрент бесплатно
  • Кловерфилд, 10 / 10 Cloverfield Lane (2016) WEB-DL 1080p | Line скачать торрент бесплатно
  • Кловерфилд, 10 / 10 Cloverfield Lane (2016) WEB-DLRip от MegaPeer | Line скачать торрент бесплатно
  • Кловерфилд, 10 / 10 Cloverfield Lane (2016) BDRip 720p | Line скачать торрент бесплатно
  • Кловерфилд, 10 / 10 Cloverfield Lane (2016) BDRemux 1080p от ExKinoRay | Line скачать торрент бесплатно
  • Кловерфилд, 10 / 10 Cloverfield Lane (2016) BDRip 1080p от ExKinoRay | Line скачать торрент бесплатно


    • Комментарии (0):

      Информация

      Информация

        Посетители, находящиеся в группе Гости, не могут оставлять комментарии в данной новости.

        ↓ Меню



        ↓ Опрос

        А Вы добавили сайт в закладки?
        Да
        Не


        Top 10 за неделю (Фильмы)