.
Авторизация | Регистрация
Хочешь лучшие торренты? Добавь свой email!
Добавить
» » Холодная война / Cold War (2012) BDRemux 1080p | L2, L1 торрент скачать бесплатно




    Холодная война / Cold War (2012) BDRemux 1080p | L2, L1 торрент скачать бесплатно

    Опубликовал: Админ | Дата: 9-07-2016, 18:05 | Просмотров: 150



    Холодная война / Cold War / Hon zin
    Снималось в: Гонконг
    Создали в: Edko Films, Irresistible Delta, Sil-Metropole Organisation, Stars Shine Blue Sea Productions
    Создали в: 2012
    Категория жанра: боевик, криминал, детектив
    Время просмотра: 01: 41: 49
    Главный режиссеры: Лок Мэн Люн, Ким-Чин Люк
    Авторы сценария: Лок Мэн Люн, Ким-Чин Люк

    Актеры
    Аарон Квок, Тони Люн Ка-фай, Энди Лау, Аариф Ли, Чарли Ен, Гордон Лам, Кар Лок Чин, Энди Он, Теренс Йин, Эдди Пэн
    Описание: У гонконгской полиции дел невпроворот — в Монгкоке произошел сильный взрыв, а тем временем с радаров исчез один из полицейских патрульных экипажей, причем, среди пропавших сын полицейского начальника, мистера Ли. Ли называет операцию по его поиску Холодная война и бросает на нее все полицейские силы, что заставляет офицера Шона Лау сместить его с поста руководителя операцией. Тем не менее, поймать похитителей не удается — деньги за выкуп пропали, хорошо хоть полицейские вернулись домой. Но спустя какое-то время следователи из отдела внутренних расследований начинают подозревать, что вся эта операция была срежиссирована кем-то из служителей закона…

    Перевод текста: Любительский (двухголосый) | GREEN TEA+ Любительский (одноголосый) | den904
    Субтитры: русские, английские
    Качество фильма: BDRemux 1080p
    Тип видео: МКV
    Информация о видео кодек: AVC
    Информация о звуке кодек: АС3 | DTS
    Информация о видео: 1920x1080 (16: 9), 24.000 fps, MPEG-4 AVC ~26.6 Мbps avg
    Информация о звуке №1: 48.0 kHz, AC3 Dolby Digital, 3/2 (L, C, R, l, r) + LFE ch, ~448 kbps | GREEN TEA
    Информация о звуке №2: 48.0 kHz, AC3 Dolby Digital, 2/0 (L, R) ch, ~192 kbps | den904
    Информация о звуке №3: 48.0 kHz, Digital Theater Systems Master Audio, 8 ch, ~2373 kbps | CHI/ Cantonese
    Информация о звуке №4: 48.0 kHz, AC3 Dolby Digital, 2/0 (L, R) ch, ~384 kbps | CHI/ Mandarin
    Тип видео субтитров: UTF-8 Plain Text
    Дата премьеры (мир): 2 октября 2012

    Релиз подготовил:
    Media Info

    Уникальный идентификатор : 184490687598372091057248654329232147460 (0x8ACB9D2D2DDEB14686F73CFB91E2C404)
    Полное имя : Cold.War.2012.BDRemux.1080p_by_vedigo.mkv
    Формат : Matroska
    Версия формата : Version 4/Version 2
    Размер файла : 21, 3 Гбайт
    Продолжительность : 1 ч. 41 м.
    Режим общего битрейта : Переменный
    Общий поток : 30, 0 Мбит/сек
    Название фильма : Cold.War.2012.BDRemux.1080p_by_vedigo
    Дата кодирования : UTC 2016-07-07 08: 01: 51
    Программа кодирования : mkvmerge v9.2.0 (;Photograph;) 64bit
    Библиотека кодирования : libebml v1.3.3 + libmatroska v1.4.4
    Видео
    Идентификатор : 1
    Формат : AVC
    Формат/Информация : Advanced Video Codec
    Профиль формата : High@L4.1
    Параметр CABAC формата : Да
    Параметр ReFrames формата : 4 кадра
    Параметр GOP формата : M=3, N=24
    Идентификатор кодека : V_MPEG4/ISO/AVC
    Продолжительность : 1 ч. 41 м.
    Вид битрейта : Переменный
    Битрейт : 26, 6 Мбит/сек
    Максимальный битрейт : 34, 0 Мбит/сек
    Ширина : 1920 пикселей
    Высота : 1080 пикселей
    Соотношение сторон : 16: 9
    Режим частоты кадров : Постоянный
    Частота кадров : 24, 000 кадра/сек
    Стандарт вещания : NTSC
    Цветовое пространство : YUV
    Субдискретизация насыщенности : 4: 2: 0
    Битовая глубина : 8 бит
    Тип развёртки : Прогрессивная
    Бит/(Пиксели*Кадры) : 0.534
    Размер потока : 18, 9 Гбайт (89%)
    Заголовок : Cold.War.2012.BDRemux.1080p_by_vedigo
    Default : Да
    Forced : Нет
    Цветовой диапазон : Limited
    Основные цвета : BT.709
    Характеристики трансфера : BT.709
    Коэффициенты матрицы : BT.709
    Аудио #1
    Идентификатор : 2
    Формат : AC-3
    Формат/Информация : Audio Coding 3
    Расширение режима : CM (complete main)
    Параметр Endianness формата : Big
    Идентификатор кодека : A_AC3
    Продолжительность : 1 ч. 41 м.
    Вид битрейта : Постоянный
    Битрейт : 448 Кбит/сек
    Каналы : 6 каналов
    Расположение каналов : Front: L C R, Side: L R, LFE
    Частота : 48, 0 КГц
    Частота кадров : 31, 250 кадров/сек (1536 spf)
    Метод сжатия : С потерями
    Размер потока : 326 Мбайт (1%)
    Заголовок : DVO @ GREEN TEA
    Язык : Russian
    Default : Да
    Forced : Нет
    Аудио #2
    Идентификатор : 3
    Формат : AC-3
    Формат/Информация : Audio Coding 3
    Расширение режима : CM (complete main)
    Параметр Endianness формата : Big
    Идентификатор кодека : A_AC3
    Продолжительность : 1 ч. 41 м.
    Вид битрейта : Постоянный
    Битрейт : 192 Кбит/сек
    Каналы : 2 канала
    Расположение каналов : Front: L R
    Частота : 48, 0 КГц
    Частота кадров : 31, 250 кадров/сек (1536 spf)
    Метод сжатия : С потерями
    Размер потока : 140 Мбайт (1%)
    Заголовок : VO @ den904
    Язык : Russian
    Default : Нет
    Forced : Нет
    Аудио #3
    Идентификатор : 4
    Формат : DTS
    Формат/Информация : Digital Theater Systems
    Профиль формата : MA/Core
    Режим : 16
    Параметр Endianness формата : Big
    Идентификатор кодека : A_DTS
    Продолжительность : 1 ч. 41 м.
    Вид битрейта : Переменный/Постоянный
    Битрейт : 2373 Кбит/сек/1509 Кбит/сек
    Каналы : 8 каналов/6 каналов
    Расположение каналов : Front: L C R, Side: L R, Back: L R, LFE/Front: L C R, Side: L R, LFE
    Частота : 48, 0 КГц
    Частота кадров : 93, 750 кадра/сек (512 spf)
    Битовая глубина : 16 бит
    Метод сжатия : Без потерь/Lossy
    Размер потока : 1, 69 Гбайт (8%)
    Заголовок : Cantonese
    Язык : Chinese
    Default : Нет
    Forced : Нет
    Аудио #4
    Идентификатор : 5
    Формат : AC-3
    Формат/Информация : Audio Coding 3
    Расширение режима : CM (complete main)
    Параметр Endianness формата : Big
    Идентификатор кодека : A_AC3
    Продолжительность : 1 ч. 41 м.
    Вид битрейта : Постоянный
    Битрейт : 384 Кбит/сек
    Каналы : 2 канала
    Расположение каналов : Front: L R
    Частота : 48, 0 КГц
    Частота кадров : 31, 250 кадров/сек (1536 spf)
    Метод сжатия : С потерями
    Размер потока : 280 Мбайт (1%)
    Заголовок : Mandarin
    Язык : Chinese
    Default : Нет
    Forced : Нет
    Текст #1
    Идентификатор : 6
    Формат : UTF-8
    Идентификатор кодека : S_TEXT/UTF8
    Идентификатор кодека/Информация : UTF-8 Plain Text
    Продолжительность : 1 ч. 40 м.
    Битрейт : 114 бит/сек
    Count of elements : 1366
    Размер потока : 84, 6 Кбайт (0%)
    Заголовок : Subtitle rus @ Sephiroth
    Язык : Russian
    Default : Нет
    Forced : Нет
    Текст #2
    Идентификатор : 7
    Формат : UTF-8
    Идентификатор кодека : S_TEXT/UTF8
    Идентификатор кодека/Информация : UTF-8 Plain Text
    Продолжительность : 1 ч. 37 м.
    Битрейт : 62 бит/сек
    Count of elements : 1372
    Размер потока : 44, 7 Кбайт (0%)
    Заголовок : Subtitle eng
    Язык : English
    Default : Нет
    Forced : Нет
    Меню
    00: 00: 00.000 : en: 00: 00: 00.000
    00: 06: 01.417 : en: 00: 06: 01.417
    00: 16: 52.000 : en: 00: 16: 52.000
    00: 25: 14.750 : en: 00: 25: 14.750
    00: 34: 33.667 : en: 00: 34: 33.667
    00: 42: 19.583 : en: 00: 42: 19.583
    00: 50: 35.958 : en: 00: 50: 35.958
    00: 58: 23.625 : en: 00: 58: 23.625
    01: 07: 48.500 : en: 01: 07: 48.500
    01: 17: 56.958 : en: 01: 17: 56.958
    01: 27: 57.792 : en: 01: 27: 57.792
    01: 33: 34.375 : en: 01: 33: 34.375

    Скриншоты

    Залил: Zha-4k-e

    Онлайн видео Холодная война


    Размер скачиваемого торрента: 21.33 GB (22899311590 Bytes)

    Холодная война/Cold War (2012) BDRemux 1080p | L2, L1
    загрузка...
    Рейтинг →
     (голосов: 1, оценка 5/5, голосовать можно 1 раз )

    Другие торренты по теме:

  • Холодная война / Cold War (2012) BDRip | L1
  • Натан Арчер - Хищник. Холодная война (2012) MP3
  • Холодная война / Cold War (2012) BDRip от HQ-ViDEO | L2 скачать через торрент бесплатно
  • Холодная война (4 серии из 8) / 2015 / РУ / IPTVRip
  • Холодная война. Битва над океаном (2004) SATRip от torrentfilm
  • Холодная война / Cold War (2012) BDRip 720p | L2, L1
  • Холодная война / Cold War / Hon zin (2012) BDRip 1080p от MediaClub | L2, L1
  • Холодная война 2 / Hon zin 2 (2016) BDRip 1080p | L


    • Комментарии (0):

      Информация

      Информация

        Посетители, находящиеся в группе Гости, не могут оставлять комментарии в данной новости.

        ↓ Меню



        ↓ Опрос

        А Вы добавили сайт в закладки?
        Да
        Не


        Top 10 за месяц (Фильмы)