.
Авторизация | Регистрация
Хочешь лучшие торренты? Добавь свой email!
Добавить
» » Первый эшелон (1955) DVDRip-AVC от New-Team торрент скачать бесплатно




    Первый эшелон (1955) DVDRip-AVC от New-Team торрент скачать бесплатно

    Опубликовал: Админ | Дата: 10-07-2016, 05:00 | Просмотров: 72



    Снималось в: СССР
    Создали в: Мосфильм
    Категория жанра: драма, мелодрама, военный
    Создали в: 1955
    Время просмотра: 01: 47: 44
    Перевод текста: Не требуется
    Субтитры подготовлены: нет
    Оригинальная аудиодорожка: русский
    Главный режиссер: Михаил Калатозов

    Актеры

    Всеволод Санаев, Сергей Ромоданов, Николай Анненков, Олег Ефремов, Изольда Извицкая, Эдуард Бредун, Алексей Кожевников, Нина Дорошина, Эльза Леждей, Анатолий Кириллов, Валентина Кузнецова (II), Вячеслав Воронин, Хорен Абрамян, Борис Беляков, Виктор Новосельский, Валентин Печников, Сергей Швардыгулов...
    Полный список актёров
    Описание:
    В один из степных районов Казахстана прибывает по комсомольским путевкам отряд молодежи. Целинники - энтузиасты приехали осваивать казахстанскую степь. Суровые морозы и потоки весенней грязи, изнуряющая работа не по специальности усложняют и без того трудную жизнь прибывших, но не могут помешать молодым ребятам радоваться жизни.
    На фоне этих трудностей развивается трогательный роман секретаря комсомольской организации и трактористки Анны...



    Источник: DVD9 R5
    Качество фильма видео: DVDRip-AVC
    Тип видео видео: MKV
    Информация о видео: 704-738x554 (4: 3), 25 fps, H264 ~ 1746 kbps avg, 0.179 bit/pixel
    Информация о звуке: 48 kHz, Dolby Digital AC3 2.0, 192 kbps
    Раздача от:
    MediaInfo

    Общее
    Полное имя : Perviy.eshelon.1955.DVDRip-AVC_New-team_by_AVP_Studio.mkv
    Формат : Matroska
    Версия формата : Version 4/Version 2
    Размер файла : 1, 45 Гбайт
    Продолжительность : 1 ч. 47 м.
    Общий поток : 1940 Кбит/сек
    Дата кодирования : UTC 2016-07-07 16: 31: 01
    Программа кодирования : mkvmerge v9.2.0 (;Photograph;) 64bit
    Библиотека кодирования : libebml v1.3.3 + libmatroska v1.4.4
    Видео
    Идентификатор : 1
    Формат : AVC
    Формат/Информация : Advanced Video Codec
    Профиль формата : High@L4.1
    Параметр CABAC формата : Да
    Параметр ReFrames формата : 10 кадров
    Идентификатор кодека : V_MPEG4/ISO/AVC
    Продолжительность : 1 ч. 47 м.
    Битрейт : 1746 Кбит/сек
    Ширина : 704 пикселя
    Высота : 554 пикселя
    Соотношение сторон : 4: 3
    Режим частоты кадров : Постоянный
    Частота кадров : 25, 000 кадров/сек
    Цветовое пространство : YUV
    Субдискретизация насыщенности : 4: 2: 0
    Битовая глубина : 8 бит
    Тип развёртки : Прогрессивная
    Бит/(Пиксели*Кадры) : 0.179
    Размер потока : 1, 31 Гбайт (90%)
    Default : Да
    Forced : Нет
    Аудио
    Идентификатор : 2
    Формат : AC-3
    Формат/Информация : Audio Coding 3
    Расширение режима : CM (complete main)
    Параметр Endianness формата : Big
    Идентификатор кодека : A_AC3
    Продолжительность : 1 ч. 47 м.
    Вид битрейта : Постоянный
    Битрейт : 192 Кбит/сек
    Каналы : 2 канала
    Расположение каналов : Front: L R
    Частота : 48, 0 КГц
    Частота кадров : 31, 250 кадров/сек (1536 spf)
    Метод сжатия : С потерями
    Задержка видео : 16 мс.
    Размер потока : 147 Мбайт (10%)
    Default : Да
    Forced : Нет

    Скриншоты



    Залил: AVPStudio

    Онлайн видео Первый эшелон (1955) DVDRip


    Размер скачиваемого торрента: 1.45 GB (1560284350 Bytes)

    Первый эшелон (1955) DVDRip-AVC от New-Team
    загрузка...
    Рейтинг →
     (голосов: 1, оценка 3/5, голосовать можно 1 раз )

    Другие торренты по теме:

  • Первый эшелон / 1955 / РУ / DVD-9
  • Первый эшелон (1955) DVDRip от New-Team


    • Комментарии (0):

      Информация

      Информация

        Посетители, находящиеся в группе Гости, не могут оставлять комментарии в данной новости.

        ↓ Меню



        ↓ Опрос

        А Вы добавили сайт в закладки?
        Да
        Не


        Top 10 за месяц (Фильмы)