.
Авторизация | Регистрация
Хочешь лучшие торренты? Добавь свой email!
Добавить
» » Горец 3: Последнее измерение / Highlander III: The Sorcerer (1994) BDRip-AVC от Sem-te | P торрент скачать бесплатно




    Горец 3: Последнее измерение / Highlander III: The Sorcerer (1994) BDRip-AVC от Sem-te | P торрент скачать бесплатно

    Опубликовал: Админ | Дата: 10-07-2016, 05:00 | Просмотров: 85



    Снималось в: Канада, Франция, Великобритания
    Категория жанра: Фантастика, фэнтези, боевик
    Создали в: 1994
    Время просмотра: 01: 36: 58
    Перевод текста: Профессиональный (многоголосый закадровый) РТР
    Перевод текста 2: Профессиональный (многоголосый закадровый) ОРТ
    Субтитры подготовлены: русские, английский
    Оригинальная аудиодорожка: английский
    Главный режиссер: Эндрю Морахэн/Andrew Morahan

    Актеры
    Кристофер Ламберт, Марио Ван Пиблз, Дебора Кара Ангер, Мако, Рауль Трухильо, Жан-Пьерр Перуссе, Мартин Неуфелд, Фредерик Й. Окимура, Дэниэл До, Габриэль Какон, Луи Бертиньяк, Майкл Джэйстон, Акира Иноэ, Дарси Лори, Дэвид Френсис, Лиза Вителло, Мэтт Холлэнд, Ричард Джутрас, Лиз МакРэй, Эмидио Мичетти, Андре Умански, Чарльз С. Дусе, Гарт Гилкер, Пол Хопкинс, Майкл МакГилл, Чип Чуипка, Патрик Фьерри, Клиффорд Де Спенсер, Джон Данн-Хилл, Власта Врана, Арон Тэйджер, Шина Ларкин, Роберт Осорес, Лоуренс Тсуджи, Джо ДеПол, Кристофер Хейердал, Бонни Мак, Мартин Кантин, Джейсон Кавал
    Описание: Бессмертный воин Коннор Маклауд вновь вызван на поединок, на этот раз своим самым могущественным врагом, Колдуном Кейном, заточенным под мистической горой в Японии 300 лет назад и достигшим невероятной магической силы. Ничего не подозревающие археологи освобождают Кейна. Для того, чтобы править миром колдуну нужна магическая энергия, которую он сможет получить только убив Горца. Маклауд скрывается в родные горы Шотландии, чтобы подготовиться к решающей битве и выковать новый меч в старинной кузнице. Он встречает Алекс, ученую из музея Античной Истории. Много лет назад в другой жизни Алекс и Маклауд любили друг друга. Алекс пытается его поддержать, окончательно разгадав мистическое предназначение сражения Горца с Колдуном, которое может положить конец вечной войне.
    Доп. информация: За перевод РТР спасибо Sem-te , за синхронизацию перевода огромное спасибо *Sergeant_am* .
    Автор рипа: Sem-te
    Релиз подготовил:

    Качество фильма видео: BDRip-AVC (Исходник: Кинозал/BDRemux 1080р)
    Тип видео видео: MKV
    Информация о видео: 752x320 (2.35: 1), 23, 976 fps, MPEG-4 AVC ~1279 kbps avg, 0.222 bit/pixel
    Информация о звуке 1: 48 kHz/16-bit, AC3 2/0 (L, R), ~192.00 kbps avg | РТР |
    Информация о звуке 2: 48 kHz/16-bit, AC3 2/0 (L, R), ~192.00 kbps avg | ОРТ |
    Информация о звуке 3: 48 kHz, AC3 Dolby Digital, 3/2 (L, C, R, l, r) + LFE ch, ~448.00 kbps avg
    MediaInfo

    General
    Unique ID : 246927884495106886475017332416707255319 (0xB9C494A7CB3DC7788A91DD8A133B5C17)
    Format : Matroska
    Format version : Version 2
    File size : 1.46 GiB
    Duration : 1h 38mn
    Overall bit rate : 2 113 Kbps
    Encoded date : UTC 2016-07-07 19: 18: 19
    Writing application : mkvmerge v7.8.0 (;River Man;) 32bit built on Apr 3 2015 12: 11: 22
    Writing library : libebml v1.3.1 + libmatroska v1.4.2
    Video
    ID : 1
    Format : AVC
    Format/Info : Advanced Video Codec
    Format profile : High@L4.1
    Format settings, CABAC : Yes
    Format settings, ReFrames : 11 frames
    Codec ID : V_MPEG4/ISO/AVC
    Duration : 1h 38mn
    Bit rate : 1 279 Kbps
    Width : 752 pixels
    Height : 320 pixels
    Display aspect ratio : 2.35: 1
    Frame rate mode : Constant
    Frame rate : 23.976 fps
    Color space : YUV
    Chroma subsampling : 4: 2: 0
    Bit depth : 8 bits
    Scan type : Progressive
    Bits/(Pixel*Frame) : 0.222
    Stream size : 877 MiB (59%)
    Writing library : x264 core 146 r2538 121396c
    Encoding settings : cabac=1/ref=11/deblock=1: -2: -1/analyse=0x3: 0x133/me=umh/subme=11/psy=1/psy_rd=1.00: 0.20/mixed_ref=1/me_range=32/chroma_me=1/trellis=2/8x8dct=1/cqm=0/deadzone=21, 11/fast_pskip=1/chroma_qp_offset=-3/threads=3/lookahead_threads=1/sliced_threads=0/nr=0/decimate=1/interlaced=0/bluray_compat=0/constrained_intra=0/bframes=11/b_pyramid=2/b_adapt=2/b_bias=0/direct=3/weightb=1/open_gop=0/weightp=2/keyint=250/keyint_min=23/scenecut=40/intra_refresh=0/rc_lookahead=60/rc=2pass/mbtree=1/bitrate=1279/ratetol=1.0/qcomp=0.60/qpmin=0/qpmax=69/qpstep=4/cplxblur=20.0/qblur=0.5/ip_ratio=1.40/aq=1: 1.00
    Default : Yes
    Forced : No
    Audio #1
    ID : 2
    Format : AC-3
    Format/Info : Audio Coding 3
    Mode extension : CM (complete main)
    Format settings, Endianness : Big
    Codec ID : A_AC3
    Duration : 1h 38mn
    Bit rate mode : Constant
    Bit rate : 192 Kbps
    Channel(s) : 2 channels
    Channel positions : Front: L R
    Sampling rate : 48.0 KHz
    Bit depth : 16 bits
    Compression mode : Lossy
    Stream size : 136 MiB (9%)
    Title : РТР
    Language : Russian
    Default : Yes
    Forced : No
    Audio #2
    ID : 3
    Format : AC-3
    Format/Info : Audio Coding 3
    Mode extension : CM (complete main)
    Format settings, Endianness : Big
    Codec ID : A_AC3
    Duration : 1h 38mn
    Bit rate mode : Constant
    Bit rate : 192 Kbps
    Channel(s) : 2 channels
    Channel positions : Front: L R
    Sampling rate : 48.0 KHz
    Bit depth : 16 bits
    Compression mode : Lossy
    Stream size : 136 MiB (9%)
    Title : ОРТ
    Language : Russian
    Default : No
    Forced : No
    Audio #3
    ID : 4
    Format : AC-3
    Format/Info : Audio Coding 3
    Mode extension : CM (complete main)
    Format settings, Endianness : Big
    Codec ID : A_AC3
    Duration : 1h 38mn
    Bit rate mode : Constant
    Bit rate : 448 Kbps
    Channel(s) : 6 channels
    Channel positions : Front: L C R, Side: L R, LFE
    Sampling rate : 48.0 KHz
    Bit depth : 16 bits
    Compression mode : Lossy
    Stream size : 317 MiB (21%)
    Language : English
    Default : No
    Forced : No
    Text #1
    ID : 5
    Format : UTF-8
    Codec ID : S_TEXT/UTF8
    Codec ID/Info : UTF-8 Plain Text
    Language : Russian
    Default : No
    Forced : No
    Text #2
    ID : 6
    Format : UTF-8
    Codec ID : S_TEXT/UTF8
    Codec ID/Info : UTF-8 Plain Text
    Language : English
    Default : No
    Forced : No

    Скриншоты




    Онлайн видео Горец 3: Последнее измерение


    Размер скачиваемого торрента: 1.46 GB (1567557589 Bytes)

    Горец 3: Последнее измерение/Highlander III: The Sorcerer (1994) BDRip-AVC от Sem-te | P
    загрузка...
    Рейтинг →
     (голосов: 1, оценка 3/5, голосовать можно 1 раз )

    Другие торренты по теме:

  • Горец 3: Последнее измерение / Горец 3: Чародей / Highlander III: The Sorcerer / Highlander III: The Final Dimension (1994) BDRip от HQCLUB скачать через торрент бесплатно
  • Горец 3: Последнее измерение / Highlander III: The Sorcerer (1994) HDRip
  • Горец 3: Последнее измерение / Highlander III: The Sorcerer (1994) HDRip | P скачать через торрент бесплатно


    • Комментарии (0):

      Информация

      Информация

        Посетители, находящиеся в группе Гости, не могут оставлять комментарии в данной новости.

        ↓ Меню



        ↓ Опрос

        А Вы добавили сайт в закладки?
        Да
        Не


        Top 10 за месяц (Фильмы)