.
Авторизация | Регистрация
Хочешь лучшие торренты? Добавь свой email!
Добавить
» » Первый эшелон (1955) DVDRip от New-Team торрент скачать бесплатно




    Первый эшелон (1955) DVDRip от New-Team торрент скачать бесплатно

    Опубликовал: Админ | Дата: 10-07-2016, 14:33 | Просмотров: 203



    Снималось в: СССР
    Создали в: Мосфильм
    Категория жанра: драма, мелодрама, военный
    Создали в: 1955
    Время просмотра: 01: 47: 44
    Перевод текста: Не требуется
    Субтитры подготовлены: нет
    Оригинальная аудиодорожка: русский
    Главный режиссер: Михаил Калатозов

    Актеры

    Всеволод Санаев, Сергей Ромоданов, Николай Анненков, Олег Ефремов, Изольда Извицкая, Эдуард Бредун, Алексей Кожевников, Нина Дорошина, Эльза Леждей, Анатолий Кириллов, Валентина Кузнецова (II), Вячеслав Воронин, Хорен Абрамян, Борис Беляков, Виктор Новосельский, Валентин Печников, Сергей Швардыгулов...
    Полный список актёров
    Описание:
    В один из степных районов Казахстана прибывает по комсомольским путевкам отряд молодежи. Целинники - энтузиасты приехали осваивать казахстанскую степь. Суровые морозы и потоки весенней грязи, изнуряющая работа не по специальности усложняют и без того трудную жизнь прибывших, но не могут помешать молодым ребятам радоваться жизни.
    На фоне этих трудностей развивается трогательный роман секретаря комсомольской организации и трактористки Анны...



    Источник: DVD9 R5
    Качество фильма видео: DVDRip
    Тип видео видео: AVI
    Информация о видео: 704x528 (4: 3), 25 fps, XviD ~ 1736 kbps avg, 0.187 bit/pixel
    Информация о звуке: 48 kHz, Dolby Digital AC3 2.0, 192 kbps
    Раздача от:
    MediaInfo

    Общее
    Полное имя : Perviy.eshelon.1955.DVDRip_New-team_by_AVP_Studio.avi
    Формат : AVI
    Формат/Информация : Audio Video Interleave
    Размер файла : 1, 45 Гбайт
    Продолжительность : 1 ч. 47 м.
    Общий поток : 1938 Кбит/сек
    Программа кодирования : VirtualDubModRus 1.5.10.2 (build 2542/release)
    Библиотека кодирования : VirtualDubMod build 2542/release
    Видео
    Идентификатор : 0
    Формат : MPEG-4 Visual
    Профиль формата : Advanced Simple@L5
    Параметр BVOP формата : 1
    Параметр QPel формата : Нет
    Параметр GMC формата : Без точки перехода
    Параметр матрицы формата : Выборочная
    Идентификатор кодека : XVID
    Идентификатор кодека/Подсказка : XviD
    Продолжительность : 1 ч. 47 м.
    Битрейт : 1736 Кбит/сек
    Ширина : 704 пикселя
    Высота : 528 пикселей
    Соотношение сторон : 4: 3
    Частота кадров : 25, 000 кадров/сек
    Цветовое пространство : YUV
    Субдискретизация насыщенности : 4: 2: 0
    Битовая глубина : 8 бит
    Тип развёртки : Прогрессивная
    Метод сжатия : С потерями
    Бит/(Пиксели*Кадры) : 0.187
    Размер потока : 1, 30 Гбайт (90%)
    Библиотека кодирования : XviD 1.2.1 (UTC 2008-12-04)
    Аудио
    Идентификатор : 1
    Формат : AC-3
    Формат/Информация : Audio Coding 3
    Расширение режима : CM (complete main)
    Параметр Endianness формата : Big
    Идентификатор кодека : 2000
    Продолжительность : 1 ч. 47 м.
    Вид битрейта : Постоянный
    Битрейт : 192 Кбит/сек
    Каналы : 2 канала
    Расположение каналов : Front: L R
    Частота : 48, 0 КГц
    Частота кадров : 31, 250 кадров/сек (1536 spf)
    Метод сжатия : С потерями
    Размер потока : 147 Мбайт (10%)
    Выравнивание : Разделение по промежуткам
    Продолжительность промежутка : 40 мс. (1, 00 видеокадр)
    Время предзагрузки промежутка : 500 мс

    Скриншоты



    Залил: AVPStudio

    Онлайн видео Первый эшелон (1955) DVDRip от New


    Размер скачиваемого торрента: 1.45 GB (1558695936 Bytes)

    Первый эшелон (1955) DVDRip от New-Team
    загрузка...
    Рейтинг →
     (голосов: 1, оценка 5/5, голосовать можно 1 раз )

    Другие торренты по теме:

  • Первый эшелон / 1955 / РУ / DVD-9
  • Первый эшелон (1955) DVDRip-AVC от New-Team


    • Комментарии (0):

      Информация

      Информация

        Посетители, находящиеся в группе Гости, не могут оставлять комментарии в данной новости.

        ↓ Меню



        ↓ Опрос

        А Вы добавили сайт в закладки?
        Да
        Не


        Top 10 за месяц (Фильмы)