.
Авторизация | Регистрация
» » Разрушение / Demolition (2015) BDRemux 1080p от ExKinoRay | L скачать торрент бесплатно




    Разрушение / Demolition (2015) BDRemux 1080p от ExKinoRay | L скачать торрент бесплатно

    Опубликовал: Админ | Дата: 11-07-2016, 05:00 | Просмотров: 143474



    Детально о кино
    Русское название: Разрушение
    Русское название в мировом прокате: Demolition
    Создали в: 2015
    Категория жанра: Драма, комедия
    Главный режиссер: Жан-Марк Валле

    Актеры
    Джейк Джилленхол, Наоми Уоттс, Крис Купер, Джуда Льюис, С.Дж. Уилсон, Полли Дрэйпер, Мэлаки Клири, Дебра Монк, Хезер Линд, Уасс М. Стивенс

    Сюжет фильма

    Когда Дэвис узнал, что его жена умерла, он захотел купить шоколадные конфеты в торговом автомате, но пачка застряла. Пытаясь выяснить, почему он ничего не чувствует по поводу смерти жены, Дэвис начинает писать длинные письма в обслуживающую торговые автоматы фирму. А в письмах он рассказывает о себе и об отношениях с погибшей женой. Скоро ему отвечает Карен, менеджер компании. Попутно Дэвис понимает, что ему совершенно необходимо разобрать холодильник, разломать кабинку туалета, рабочий компьютер и разрушить собственный дом.

    Снималось в: США
    Киностудия: Black Label Media, Mr. Mudd, Right of Way Films, Sidney Kimmel Entertainment
    Время просмотра: 01: 41: 25
    Перевод текста: Любительский многоголосый (закадровый) | СПД
    Файл
    Кодек для видео: x264
    Качество фильма: BDRemux 1080p
    Информация о видео: 1920x1080, 29.4 Mbit/s, 23.976 fps
    Информация о звуке:
    Информация о звуке #01: 48 kHz, AC3, 5.1, 384 Kbps | Любительский многоголосый (закадровый), СПД |
    Информация о звуке #02: 48 kHz, DTS-HD MA, 5.1, 3224 kbps | Оригинал |
    Субтитры: Английские
    Релиз подготовил: Автор релиза:
    MI
    General
    Unique ID : 171208930050210227479220112039105077705 (0x80CDA3F8A9495CFA881B9AF63BA121C9)
    Complete name : F: VideoDemolition.2015.BDREMUX.1080p.ExKinoRay.mkv
    Format : Matroska
    Format version : Version 4/Version 2
    File size : 23.3 GiB
    Duration : 1h 40mn
    Overall bit rate mode : Variable
    Overall bit rate : 33.1 Mbps
    Movie name : Demolition.2015.BDREMUX.1080p.ExKinoRay
    Encoded date : UTC 2016-07-10 14: 03: 37
    Writing application : mkvmerge v8.3.0 (;Over the Horizon;) 64bit
    Writing library : libebml v1.3.1 + libmatroska v1.4.2
    Video
    ID : 1
    Format : AVC
    Format/Info : Advanced Video Codec
    Format profile : High@L4.1
    Format settings, CABAC : Yes
    Format settings, ReFrames : 2 frames
    Codec ID : V_MPEG4/ISO/AVC
    Duration : 1h 40mn
    Bit rate mode : Variable
    Bit rate : 29.4 Mbps
    Width : 1 920 pixels
    Height : 1 080 pixels
    Display aspect ratio : 16: 9
    Frame rate mode : Constant
    Frame rate : 23.976 (24000/1001) fps
    Color space : YUV
    Chroma subsampling : 4: 2: 0
    Bit depth : 8 bits
    Scan type : Progressive
    Bits/(Pixel*Frame) : 0.592
    Stream size : 20.7 GiB (89%)
    Language : English
    Default : Yes
    Forced : No
    Audio #1
    ID : 2
    Format : AC-3
    Format/Info : Audio Coding 3
    Mode extension : CM (complete main)
    Format settings, Endianness : Big
    Codec ID : A_AC3
    Duration : 1h 40mn
    Bit rate mode : Constant
    Bit rate : 384 Kbps
    Channel(s) : 6 channels
    Channel positions : Front: L C R, Side: L R, LFE
    Sampling rate : 48.0 KHz
    Frame rate : 31.250 fps (1536 spf)
    Compression mode : Lossy
    Stream size : 277 MiB (1%)
    Title : MVO
    Language : Russian
    Default : Yes
    Forced : No
    Audio #2
    ID : 3
    Format : DTS
    Format/Info : Digital Theater Systems
    Format profile : MA/Core
    Mode : 16
    Format settings, Endianness : Big
    Codec ID : A_DTS
    Duration : 1h 40mn
    Bit rate mode : Variable/Constant
    Bit rate : 3 224 Kbps/1 509 Kbps
    Channel(s) : 6 channels
    Channel positions : Front: L C R, Side: L R, LFE
    Sampling rate : 48.0 KHz
    Frame rate : 93.750 fps (512 spf)
    Bit depth : 24 bits
    Compression mode : Lossless/Lossy
    Stream size : 2.27 GiB (10%)
    Title : Original
    Language : English
    Default : No
    Forced : No
    Text #1
    ID : 4
    Format : UTF-8
    Codec ID : S_TEXT/UTF8
    Codec ID/Info : UTF-8 Plain Text
    Duration : 1h 39mn
    Bit rate : 51 bps
    Count of elements : 1256
    Stream size : 37.6 KiB (0%)
    Title : Full
    Language : English
    Default : No
    Forced : No
    Text #2
    ID : 5
    Format : UTF-8
    Codec ID : S_TEXT/UTF8
    Codec ID/Info : UTF-8 Plain Text
    Duration : 1h 39mn
    Bit rate : 57 bps
    Count of elements : 1439
    Stream size : 41.9 KiB (0%)
    Title : SDH
    Language : English
    Default : No
    Forced : No
    Menu
    00: 00: 00.000 : en: Chapter 1
    00: 03: 09.815 : en: Chapter 2
    00: 07: 28.281 : en: Chapter 3
    00: 11: 11.671 : en: Chapter 4
    00: 15: 55.997 : en: Chapter 5
    00: 19: 23.037 : en: Chapter 6
    00: 23: 14.768 : en: Chapter 7
    00: 28: 21.325 : en: Chapter 8
    00: 32: 39.040 : en: Chapter 9
    00: 37: 16.693 : en: Chapter 10
    00: 42: 31.382 : en: Chapter 11
    00: 47: 09.952 : en: Chapter 12
    00: 51: 39.805 : en: Chapter 13
    00: 56: 23.005 : en: Chapter 14
    01: 00: 27.290 : en: Chapter 15
    01: 04: 41.878 : en: Chapter 16
    01: 09: 10.188 : en: Chapter 17
    01: 14: 08.444 : en: Chapter 18
    01: 18: 14.523 : en: Chapter 19
    01: 22: 22.354 : en: Chapter 20
    01: 26: 28.475 : en: Chapter 21
    01: 29: 15.475 : en: Chapter 22
    01: 33: 43.618 : en: Chapter 23
    01: 36: 41.838 : en: Chapter 24
    Скриншоты


    Онлайн видео Разрушение


    Размер скачиваемого торрента: 23.29 GB (25008433041 Bytes)

    Разрушение/Demolition (2015) BDRemux 1080p от ExKinoRay | L
    загрузка...
    Рейтинг →
     (голосов: 1, оценка 3/5, голосовать можно 1 раз )

    Другие торренты по теме:



      Комментарии (0):

      Информация

      Информация

        Посетители, находящиеся в группе Гости, не могут оставлять комментарии в данной новости.

        ↓ Меню



        ↓ Опрос

        А Вы добавили сайт в закладки?
        Да
        Не


        Top 10 за неделю (Фильмы)