.
Авторизация | Регистрация
Хочешь лучшие торренты? Добавь свой email!
Добавить




Стрелок (2012) DVDRip от New-Team торрент скачать бесплатно

Опубликовал: Админ | Дата: 12-07-2016, 11:47 | Просмотров: 98



Снималось в: Россия
Создали в: Берг Саунд
Категория жанра: боевик
Создали в: 2012
Время просмотра: 02: 57: 14
Перевод текста: Не требуется
Субтитры подготовлены: нет
Оригинальная аудиодорожка: русский
Главный режиссер: Арман Геворгян

Актеры

Александр Песков, Евгений Березовский, Юрий Кормушин, Виктор Фалалеев, Абел Абелян, Виген Степанян, Сергей Апрельский, Фрида Йорк, Аршо Арутюнян, Сергей Холмогоров...
Полный список актёров
Описание:
Андрей Макаров - сотрудник спецслужб. Он входит в состав группы, выслеживающей террористов с востока. Андрей плохо слышит после произошедшего с ним в детстве несчастного случая, но отлично читает по губам и в совершенстве владеет арабским. Выполняя очередное задание в одном из ближневосточных государств, он узнаёт, что боевики готовят серию терактов на территории России с использованием девушек-смертниц. Главарь террористов Абу Джалид – идейный полевой командир.



Источник: DVD9 R5
Качество фильма видео: DVDRip
Тип видео видео: AVI
Информация о видео: 640x352 (16: 9), 25 fps, XviD ~ 1042 kbps avg, 0.185 bit/pixel
Информация о звуке: 48 kHz, MP3 2.0, 128 kbps
Раздача от:
MediaInfo

Общее
Полное имя : Strelok.2012.DVDRip-1, 46_New-team_by_AVP_Studio.avi
Формат : AVI
Формат/Информация : Audio Video Interleave
Размер файла : 1, 46 Гбайт
Продолжительность : 2 ч. 57 м.
Общий поток : 1180 Кбит/сек
Программа кодирования : VirtualDubMod 1.5.10.3 | www.virtualdub-fr.org || (build 2550/release)
Библиотека кодирования : VirtualDubMod build 2550/release
Видео
Идентификатор : 0
Формат : MPEG-4 Visual
Профиль формата : Advanced Simple@L5
Параметр BVOP формата : 1
Параметр QPel формата : Нет
Параметр GMC формата : Без точки перехода
Параметр матрицы формата : Выборочная
Идентификатор кодека : XVID
Идентификатор кодека/Подсказка : XviD
Продолжительность : 2 ч. 57 м.
Битрейт : 1042 Кбит/сек
Ширина : 640 пикселей
Высота : 352 пикселя
Соотношение сторон : 16: 9
Частота кадров : 25, 000 кадров/сек
Цветовое пространство : YUV
Субдискретизация насыщенности : 4: 2: 0
Битовая глубина : 8 бит
Тип развёртки : Прогрессивная
Метод сжатия : С потерями
Бит/(Пиксели*Кадры) : 0.185
Размер потока : 1, 29 Гбайт (88%)
Библиотека кодирования : XviD 1.2.1 (UTC 2008-12-04)
Аудио
Идентификатор : 1
Формат : MPEG Audio
Версия формата : Version 1
Профиль формата : Layer 3
Идентификатор кодека : 55
Идентификатор кодека/Подсказка : MP3
Продолжительность : 2 ч. 57 м.
Вид битрейта : Постоянный
Битрейт : 128 Кбит/сек
Каналы : 2 канала
Частота : 48, 0 КГц
Метод сжатия : С потерями
Размер потока : 162 Мбайт (11%)
Выравнивание : Соединение по промежуткам
Продолжительность промежутка : 40 мс. (1, 00 видеокадр)
Время предзагрузки промежутка : 504 мс.
Библиотека кодирования : LAME3.99r
Залил: AVPStudio

Онлайн видео Стрелок (2012) DVDRip от New


Размер скачиваемого торрента: 1.46 GB (1568313344 Bytes)


Стрелок (2012) DVDRip от New-Team
загрузка...
Рейтинг →
 (голосов: 1, оценка 3/5, голосовать можно 1 раз )

Другие торренты по теме:

  • Воздушный стрелок / Aerial Gunner (1943) DVDRip-AVC от F-Torrents скачать через торрент бесплатно
  • Стрелок / Gunslinger / 1956 / 2 x ПМ / DVDRip
  • Стрелок 2 (2014) DVDRip от New-Team
  • Снайпер: Призрачный стрелок / Sniper: Ghost Shooter (2016) DVDRip | L


    • Комментарии (0):

      Информация

      Информация

        Посетители, находящиеся в группе Гости, не могут оставлять комментарии в данной новости.

        ↓ Меню



        ↓ Опрос

        А Вы добавили сайт в закладки?
        Да
        Не


        Top 10 за месяц (Фильмы)