.
Авторизация | Регистрация




Стрелок 2 (2014) DVDRip от New-Team скачать торрент бесплатно

Опубликовал: Админ | Дата: 12-07-2016, 11:47 | Просмотров: 65



Снималось в: Россия
Создали в: Берг Саунд
Категория жанра: боевик
Создали в: 2014
Время просмотра: 02: 49: 55
Перевод текста: Не требуется
Субтитры подготовлены: нет
Оригинальная аудиодорожка: русский
Главный режиссер: Аршо Арутюнян

Актеры

Евгений Березовский, Александр Носик, Юлия Борисова, Станислав Эрклиевский, Дмитрий Клепацкий, Сергей Холмогоров, Сос Джанибекян, Давид Кацарава, Арам Караханян, Сергей Апрельский, Виктор Фалалеев...
Полный список актёров
Описание:
События разворачиваются в наши дни в одном из среднеазиатских государств.
Брата Мадины, вступившегося за сестру, убивают преследующие девушку бандиты. Отцу Мадины Абдулу отказывает в помощи давний друг. Убитый горем мужчина вынужден искать поддержки на стороне, так как все вокруг или запуганы, или подкуплены бандой головорезов. Абдул приезжает в Москву, где знакомится с бывшим сотрудником спецслужб Андреем Макаровым. Андрей соглашается помочь Абдулу. Спецслужбы оказывают Макарову негласное содействие. Помогают Андрею и его товарищам и односельчане Абдула...



Источник: DVD9 R5
Качество фильма видео: DVDRip
Тип видео видео: AVI
Информация о видео: 720x304 (2.368: 1), 25 fps, XviD ~ 1029 kbps avg, 0.188 bit/pixel
Информация о звуке: 48 kHz, Dolby Digital AC3 2.0, 192 kbps
Раздача от:
MediaInfo

Общее
Полное имя : Strelok.2.2014.DVDRip_New-team_by_AVP_Studio.avi
Формат : AVI
Формат/Информация : Audio Video Interleave
Размер файла : 1, 46 Гбайт
Продолжительность : 2 ч. 49 м.
Общий поток : 1231 Кбит/сек
Программа кодирования : VirtualDubMod 1.5.10.3 | www.virtualdub-fr.org || (build 2550/release)
Библиотека кодирования : VirtualDubMod build 2550/release
Видео
Идентификатор : 0
Формат : MPEG-4 Visual
Профиль формата : Advanced Simple@L5
Параметр BVOP формата : 1
Параметр QPel формата : Нет
Параметр GMC формата : Без точки перехода
Параметр матрицы формата : Выборочная
Идентификатор кодека : XVID
Идентификатор кодека/Подсказка : XviD
Продолжительность : 2 ч. 49 м.
Битрейт : 1029 Кбит/сек
Ширина : 720 пикселей
Высота : 304 пикселя
Соотношение сторон : 2, 35: 1
Частота кадров : 25, 000 кадров/сек
Цветовое пространство : YUV
Субдискретизация насыщенности : 4: 2: 0
Битовая глубина : 8 бит
Тип развёртки : Прогрессивная
Метод сжатия : С потерями
Бит/(Пиксели*Кадры) : 0.188
Размер потока : 1, 22 Гбайт (84%)
Библиотека кодирования : XviD 1.2.1 (UTC 2008-12-04)
Аудио
Идентификатор : 1
Формат : AC-3
Формат/Информация : Audio Coding 3
Расширение режима : CM (complete main)
Параметр Endianness формата : Big
Идентификатор кодека : 2000
Продолжительность : 2 ч. 49 м.
Вид битрейта : Постоянный
Битрейт : 192 Кбит/сек
Каналы : 2 канала
Расположение каналов : Front: L R
Частота : 48, 0 КГц
Частота кадров : 31, 250 кадров/сек (1536 spf)
Метод сжатия : С потерями
Размер потока : 233 Мбайт (16%)
Выравнивание : Разделение по промежуткам
Продолжительность промежутка : 40 мс. (1, 00 видеокадр)
Время предзагрузки промежутка : 500 мс

Скриншоты



Залил: AVPStudio

Онлайн видео Стрелок 2 (2014) DVDRip от New


Размер скачиваемого торрента: 1.46 GB (1568559104 Bytes)

Стрелок 2 (2014) DVDRip от New-Team
загрузка...
Рейтинг →
 (голосов: 1, оценка 5/5, голосовать можно 1 раз )

Другие торренты по теме:

  • Воздушный стрелок / Aerial Gunner (1943) DVDRip-AVC от F-Torrents скачать через торрент бесплатно
  • Стрелок / Gunslinger / 1956 / 2 x ПМ / DVDRip скачать торрент бесплатно
  • Стрелок (2012) DVDRip от New-Team скачать торрент бесплатно
  • Снайпер: Призрачный стрелок / Sniper: Ghost Shooter (2016) DVDRip | L скачать торрент бесплатно


    • Комментарии (0):

      Информация

      Информация

        Посетители, находящиеся в группе Гости, не могут оставлять комментарии в данной новости.

        ↓ Меню



        ↓ Опрос

        А Вы добавили сайт в закладки?
        Да
        Не


        Top 10 за неделю (Фильмы)