.
Авторизация | Регистрация
Хочешь лучшие торренты? Добавь свой email!
Добавить
» » Белоснежка / Snow White (2001) DVDRemux | P2 торрент скачать бесплатно




    Белоснежка / Snow White (2001) DVDRemux | P2 торрент скачать бесплатно

    Опубликовал: Админ | Дата: 13-07-2016, 05:00 | Просмотров: 98



    Детально о кино
    Русское название: Белоснежка
    Русское название в мировом прокате: Snow White
    Создали в: 2001
    Категория жанра: фэнтези, приключения, семейный
    Главный режиссер: Кэролайн Томпсон

    Актеры

    Миранда Ричардсон— Queen Elspeth, Том Ирвин— John, Вера Фармига— Josephine, Кристин Крук— Snow White, Клэнси Браун— The Granter of Wishes, Винсент Скьявелли— Wednesday, Хосе Суньига— Hector, Майкл Дж. Андерсон— Sunday, Уорвик Дэвис— Saturday, Тайрон Лейтсо— Prince Alfred, Майкл Гилден— Monday, Марк Дж. Тромбино— Tuesday, Пенни Блейк— Thursday, Мартин Клебба— Friday, Кэмпбелл Лэйн— Magistrate, Шэйн Джонс— Palace Attendant.

    Сюжет фильма

    Рождение чудесной Белоснежки омрачилось смертью матери. Теперь ее отец по имени Джон должен найти для ребенка молоко. Но спасение девочки-ангела случилось внезапно. Отец растопил своими слезами замерзшего волшебника, который в благодарность обещал исполнить три желания Джона…
    Однако добрый гений замыслил превращение собственной сестры, мерзкой и уродливой Элспит, в злую красавицу-королеву. Белоснежке грозит роль униженной падчерицы, а Джону — партия околдованного короля…

    Снималось в: КанадаСШАГермания
    Киностудия: Babelsberg International Film Produktion GmbH, Hallmark Entertainment, Sextant Entertainment Group Inc., Snow White Productions Inc.
    Время просмотра: 01: 23: 55
    Перевод текста: Профессиональный двухголосый, Оригинал
    Файл
    Кодек для видео: MPEG2
    Качество фильма: DVDRemux
    Информация о видео: 720x576 @ 768x576 (4: 3), 25.000 fps, 5504 kbps
    Информация о звуке:
    Информация о звуке #1: AC3, 448 Kbps, 48.0 KHz, 6 ch (Rus)Профессиональный двухголосый, Екатеринбург Арт
    Информация о звуке #2: AC3, 448 Kbps, 48.0 KHz, 6 ch (Eng)Оригинал
    Субтитры: Русские
    Скриншоты


    MediaInfo
    Формат : Matroska
    Версия формата : Version 2
    Размер файла : 3, 83 Гбайт
    Продолжительность : 1 ч. 23 м.
    Режим общего битрейта : Переменный
    Общий поток : 6530 Кбит/сек
    Дата кодирования : UTC 2016-07-09 18: 33: 03
    Программа кодирования : mkvmerge v5.4.0 (;Piper;) built on Mar 10 2012 13: 34: 39
    Библиотека кодирования : libebml v1.2.3 + libmatroska v1.3.0
    Видео
    Идентификатор : 1
    Формат : MPEG Video
    Версия формата : Version 2
    Профиль формата : Main@Main
    Параметр BVOP формата : Да
    Параметр матрицы формата : По умолчанию
    Параметр GOP формата : M=5, N=26
    Format_Settings_PictureStructure : Field
    Идентификатор кодека : V_MPEG2
    Идентификатор кодека/Информация : MPEG 1 or 2 Video
    Продолжительность : 1 ч. 23 м.
    Вид битрейта : Переменный
    Битрейт : 5504 Кбит/сек
    Максимальный битрейт : 8500 Кбит/сек
    Ширина : 720 пикселей
    Высота : 576 пикселей
    Соотношение сторон : 4: 3
    Режим частоты кадров : Постоянный
    Частота кадров : 25, 000 кадров/сек
    Стандарт вещания : PAL
    Цветовое пространство : YUV
    Субдискретизация насыщенности : 4: 2: 0
    Битовая глубина : 8 бит
    Тип развёртки : Чересстрочная
    Порядок развёртки : Верхнее поле первое
    Метод сжатия : С потерями
    Бит/(Пиксели*Кадры) : 0.531
    Временной код первого кадра : 00: 59: 59: 03
    Оригинал временного кода : Group of pictures t_head
    Размер потока : 3, 23 Гбайт (84%)
    Заголовок : Snow White/Белоснежка (2001)
    Язык : English
    Default : Да
    Forced : Нет
    Основные цвета : BT.601 PAL
    Характеристики трансфера : BT.470 System B, BT.470 System G
    Коэффициенты матрицы : BT.601
    Аудио #1
    Идентификатор : 2
    Формат : AC-3
    Формат/Информация : Audio Coding 3
    Расширение режима : CM (complete main)
    Параметр Endianness формата : Big
    Идентификатор кодека : A_AC3
    Продолжительность : 1 ч. 23 м.
    Вид битрейта : Постоянный
    Битрейт : 448 Кбит/сек
    Каналы : 6 каналов
    Расположение каналов : Front: L C R, Side: L R, LFE
    Частота : 48, 0 КГц
    Битовая глубина : 16 бит
    Метод сжатия : С потерями
    Размер потока : 269 Мбайт (7%)
    Заголовок : DVO (Russian) Екатеринбург Арт
    Язык : Russian
    Default : Да
    Forced : Нет
    Аудио #2
    Идентификатор : 3
    Формат : AC-3
    Формат/Информация : Audio Coding 3
    Расширение режима : CM (complete main)
    Параметр Endianness формата : Big
    Идентификатор кодека : A_AC3
    Продолжительность : 1 ч. 23 м.
    Вид битрейта : Постоянный
    Битрейт : 448 Кбит/сек
    Каналы : 6 каналов
    Расположение каналов : Front: L C R, Side: L R, LFE
    Частота : 48, 0 КГц
    Битовая глубина : 16 бит
    Метод сжатия : С потерями
    Размер потока : 269 Мбайт (7%)
    Заголовок : Original (English)
    Язык : English
    Default : Нет
    Forced : Нет
    Текст
    Идентификатор : 4
    Формат : VobSub
    Режим смешивания : zlib
    Идентификатор кодека : S_VOBSUB
    Идентификатор кодека/Информация : The same subtitle format used on DVDs
    Заголовок : Rus
    Язык : Russian
    Default : Нет
    Forced : Нет
    Меню
    00: 00: 00.000 : en: Chapter 01
    00: 04: 27.280 : en: Chapter 02
    00: 10: 00.600 : en: Chapter 03
    00: 14: 41.920 : en: Chapter 04
    00: 18: 45.800 : en: Chapter 05
    00: 21: 22.840 : en: Chapter 06
    00: 24: 50.840 : en: Chapter 07
    00: 31: 00.560 : en: Chapter 08
    00: 35: 14.320 : en: Chapter 09
    00: 42: 11.360 : en: Chapter 10
    00: 49: 10.480 : en: Chapter 11
    00: 53: 21.640 : en: Chapter 12
    00: 56: 52.760 : en: Chapter 13
    01: 11: 04.520 : en: Chapter 14
    01: 17: 41.280 : en: Chapter 15
    01: 20: 00.640 : en: Chapter 16

    Залил: Soroka1989

    Онлайн видео Белоснежка


    Размер скачиваемого торрента: 3.83 GB (4109527775 Bytes)

    Белоснежка/Snow White (2001) DVDRemux | P2
    загрузка...
    Рейтинг →
     (голосов: 1, оценка 5/5, голосовать можно 1 раз )

    Другие торренты по теме:

  • Белоснежка / Snow White (2001) DVDRip-AVC | P2
  • Белоснежка и семь гномов / Snow White and the Seven Dwarfs (1937) BDRip 720p от HQ-ViDEO
  • Белоснежка и семь гномов / Snow White and the Seven Dwarfs (1937) BDRip-AVC от 0ptimus | D
  • Белоснежка и охотник / Snow White and the Huntsman (2012) BDRip 720p | D | Расширенная версия
  • Белоснежка и охотник / Snow White And The Huntsman (2012) BDRip 1080p от GORESEWAGE | Extended Cut
  • Белоснежка и охотник / Snow White And The Huntsman (2012) BDRemux 1080p от GORESEWAGE | Extended Cut скачать через торрент бесплатно
  • Белоснежка и охотник / Snow White And The Huntsman (2012) BDRip 1080p | Extended | D, A
  • Белоснежка и охотник / Snow White and the Huntsman (2012) BDRip 720p от Leonardo and Scarabey | Лицензия | Расширенная версия скачать через торрент бесплатно


    • Комментарии (0):

      Информация

      Информация

        Посетители, находящиеся в группе Гости, не могут оставлять комментарии в данной новости.

        ↓ Меню



        ↓ Опрос

        А Вы добавили сайт в закладки?
        Да
        Не


        Top 10 за месяц (Фильмы)