.
Авторизация | Регистрация
» » Бэтмен против Супермена: На заре справедливости / Batman v Superman:Dawn of Just. (2016) BDRemux 1080p от ExKinoRay | Расширенная версия | A скачать торрент бесплатно




    Бэтмен против Супермена: На заре справедливости / Batman v Superman:Dawn of Just. (2016) BDRemux 1080p от ExKinoRay | Расширенная версия | A скачать торрент бесплатно

    Опубликовал: Админ | Дата: 13-07-2016, 05:00 | Просмотров: 102



    Детально о кино
    Русское название: Бэтмен против Супермена: На заре справедливости
    Русское название в мировом прокате: Batman v Superman: Dawn of Justice
    Создали в: 2016
    Категория жанра: Фантастика, фэнтези, боевик, приключения
    Главный режиссер: Зак Снайдер

    Актеры
    Генри Кавилл, Бен Аффлек, Галь Гадот, Эми Адамс, Джесси Айзенберг, Джереми Айронс, Дайан Лэйн, Лоренс Фишбёрн, Холли Хантер, Скут МакНэйри, Каллэн Мулвей, Тао Окамото, Брэндон Спинк, Лорен Коэн, Алан Д. Первин, Марк Эдвард Тейлор, Хью Магвайр, Майкл Шеннон, Ханна Дворкин, Тиффани Л. Эддисон

    Сюжет фильма

    Битва между Кал-Элом и генералом Зодом наносит множество разрушений Метрополису и соседнему Готэм Сити. Башня Уэйн-тауэр - уничтожена вместе с сотнями невинных людей. Это становится началом конфликта между Последним Сыном Криптона и Темным Рыцарем Готэма, богом и человеком. Тем временем, сумасшедший гений Лекс Лютор готовит оружие Судного дня, способное уничтожить не только богоподобного Супермена, но и все человечество.

    Снималось в: США
    Киностудия: Atlas Entertainment, DC Comics, DC Entertainment, Warner Bros. Pictures
    Время просмотра: 03: 02: 31
    Перевод текста: Авторский | Алексей Матвеев (Doctor Joker)
    Файл
    Кодек для видео: MPEG-4
    Качество фильма: BDRemux 1080p
    Информация о видео: 1920x1080, 24.0 Mbit/s, 23.976 fps
    Информация о звуке:
    Информация о звуке #01: 48 kHz, DTS-HD MA, 7.1, 4472 Kbps | Авторский, Алексей Матвеев (без. цензуры) |
    Информация о звуке #02: 48 kHz, DTS-HD MA, 7.1, 4472 Kbps | Авторский, Алексей Матвеев (цензура) |
    Информация о звуке #03: 48 kHz, AC3, 5.1, 448 Kbps | Авторский, Алексей Матвеев (без. цензуры) |
    Информация о звуке #04: 48 kHz, TrueHD, 7.1, 4967 kbps | Оригинал |
    Субтитры: Русские, английские
    Релиз подготовил: Автор релиза:
    MI
    General
    Unique ID : 228449364340524538940402919997277684401 (0xABDDBF459D00E2A3997FEA417A1342B1)
    Complete name : F: VideoНовая папкаBatman.v.Superman.Dawn.of.Justice.2016.Extended.Ultimate.Edition.BDREMUX.1080p.ExKinoRay.mkv
    Format : Matroska
    Format version : Version 4/Version 2
    File size : 49.0 GiB
    Duration : 3h 2mn
    Overall bit rate mode : Variable
    Overall bit rate : 38.4 Mbps
    Movie name : Batman.v.Superman.Dawn.of.Justice.2016.Extended.Ultimate.Edition.AVO.BDREMUX.1080p.ExKinoRay
    Encoded date : UTC 2016-07-12 17: 38: 35
    Writing application : mkvmerge v8.3.0 (;Over the Horizon;) 64bit
    Writing library : libebml v1.3.1 + libmatroska v1.4.2
    Video
    ID : 1
    Format : AVC
    Format/Info : Advanced Video Codec
    Format profile : High@L4.1
    Format settings, CABAC : Yes
    Format settings, ReFrames : 2 frames
    Format settings, GOP : M=1, N=10
    Codec ID : V_MPEG4/ISO/AVC
    Duration : 3h 2mn
    Bit rate mode : Variable
    Bit rate : 24.0 Mbps
    Width : 1 920 pixels
    Height : 1 080 pixels
    Display aspect ratio : 16: 9
    Frame rate mode : Constant
    Frame rate : 23.976 (24000/1001) fps
    Color space : YUV
    Chroma subsampling : 4: 2: 0
    Bit depth : 8 bits
    Scan type : Progressive
    Bits/(Pixel*Frame) : 0.482
    Stream size : 30.6 GiB (62%)
    Language : English
    Default : Yes
    Forced : No
    Audio #1
    ID : 2
    Format : DTS
    Format/Info : Digital Theater Systems
    Format profile : MA/Core
    Mode : 16
    Format settings, Endianness : Big
    Codec ID : A_DTS
    Duration : 3h 2mn
    Bit rate mode : Variable/Constant
    Bit rate : 4 472 Kbps/1 509 Kbps
    Channel(s) : 8 channels/6 channels
    Channel positions : Front: L C R, Side: L R, Back: L R, LFE/Front: L C R, Side: L R, LFE
    Sampling rate : 48.0 KHz
    Frame rate : 93.750 fps (512 spf)
    Bit depth : 24 bits
    Compression mode : Lossless/Lossy
    Stream size : 5.70 GiB (12%)
    Title : AVO Matveev no.cens
    Language : Russian
    Default : Yes
    Forced : No
    Audio #2
    ID : 3
    Format : DTS
    Format/Info : Digital Theater Systems
    Format profile : MA/Core
    Mode : 16
    Format settings, Endianness : Big
    Codec ID : A_DTS
    Duration : 3h 2mn
    Bit rate mode : Variable/Constant
    Bit rate : 4 472 Kbps/1 509 Kbps
    Channel(s) : 8 channels/6 channels
    Channel positions : Front: L C R, Side: L R, Back: L R, LFE/Front: L C R, Side: L R, LFE
    Sampling rate : 48.0 KHz
    Frame rate : 93.750 fps (512 spf)
    Bit depth : 24 bits
    Compression mode : Lossless/Lossy
    Stream size : 5.70 GiB (12%)
    Title : AVO Matveev cens.
    Language : Russian
    Default : No
    Forced : No
    Audio #3
    ID : 4
    Format : AC-3
    Format/Info : Audio Coding 3
    Mode extension : CM (complete main)
    Format settings, Endianness : Big
    Codec ID : A_AC3
    Duration : 3h 2mn
    Bit rate mode : Constant
    Bit rate : 448 Kbps
    Channel(s) : 6 channels
    Channel positions : Front: L C R, Side: L R, LFE
    Sampling rate : 48.0 KHz
    Frame rate : 31.250 fps (1536 spf)
    Compression mode : Lossy
    Stream size : 585 MiB (1%)
    Title : AVO Matveev no cens.
    Language : Russian
    Default : No
    Forced : No
    Audio #4
    ID : 5
    Format : Atmos/TrueHD
    Codec ID : A_TRUEHD
    Duration : 3h 2mn
    Bit rate mode : Variable
    Bit rate : 4 967 Kbps
    Maximum bit rate : 8 199 Kbps
    Channel(s) : Object Based/8 channels
    Channel positions : Object Based/Front: L C R, Side: L R, Back: L R, LFE
    Sampling rate : /48.0 KHz
    Frame rate : 1 200.000 fps (40 spf)
    Compression mode : Lossless
    Stream size : 6.33 GiB (13%)
    Title : Original
    Language : English
    Default : No
    Forced : No
    Text #1
    ID : 6
    Format : UTF-8
    Codec ID : S_TEXT/UTF8
    Codec ID/Info : UTF-8 Plain Text
    Duration : 2h 59mn
    Bit rate : 62 bps
    Count of elements : 1060
    Stream size : 82.5 KiB (0%)
    Title : cens
    Language : Russian
    Default : No
    Forced : No
    Text #2
    ID : 7
    Format : UTF-8
    Codec ID : S_TEXT/UTF8
    Codec ID/Info : UTF-8 Plain Text
    Duration : 2h 59mn
    Bit rate : 62 bps
    Count of elements : 1060
    Stream size : 82.5 KiB (0%)
    Title : no. cens
    Language : Russian
    Default : No
    Forced : No
    Text #3
    ID : 8
    Format : UTF-8
    Codec ID : S_TEXT/UTF8
    Codec ID/Info : UTF-8 Plain Text
    Duration : 3h 2mn
    Bit rate : 43 bps
    Count of elements : 1914
    Stream size : 58.7 KiB (0%)
    Title : Full
    Language : English
    Default : No
    Forced : No
    Text #4
    ID : 9
    Format : UTF-8
    Codec ID : S_TEXT/UTF8
    Codec ID/Info : UTF-8 Plain Text
    Duration : 2h 53mn
    Bit rate : 46 bps
    Count of elements : 1913
    Stream size : 58.5 KiB (0%)
    Title : SDH
    Language : English
    Default : No
    Forced : No
    Menu
    00: 00: 00.000 : en: 00: 00: 00.000
    00: 10: 10.652 : en: 00: 10: 10.652
    00: 27: 00.661 : en: 00: 27: 00.661
    00: 37: 49.225 : en: 00: 37: 49.225
    00: 46: 54.520 : en: 00: 46: 54.520
    01: 02: 04.971 : en: 01: 02: 04.971
    01: 14: 10.613 : en: 01: 14: 10.613
    01: 28: 07.115 : en: 01: 28: 07.115
    01: 41: 46.642 : en: 01: 41: 46.642
    01: 53: 52.617 : en: 01: 53: 52.617
    02: 02: 58.079 : en: 02: 02: 58.079
    02: 15: 04.054 : en: 02: 15: 04.054
    02: 27: 55.075 : en: 02: 27: 55.075
    02: 36: 51.444 : en: 02: 36: 51.444
    02: 48: 27.514 : en: 02: 48: 27.514
    02: 54: 43.765 : en: 02: 54: 43.765
    Скриншоты


    Онлайн видео Бэтмен против Супермена: На заре справедливости


    Размер скачиваемого торрента: 48.95 GB (52564917611 Bytes)

    Бэтмен против Супермена: На заре справедливости/Batman v Superman:Dawn of Just. (2016) BDRemux 1080p от ExKinoRay | Расширенная версия | A
    загрузка...
    Рейтинг →
     (голосов: 1, оценка 5/5, голосовать можно 1 раз )

    Другие торренты по теме:



      Комментарии (0):

      Информация

      Информация

        Посетители, находящиеся в группе Гости, не могут оставлять комментарии в данной новости.

        ↓ Меню



        ↓ Опрос

        А Вы добавили сайт в закладки?
        Да
        Не


        Top 10 за неделю (Фильмы)