.
Авторизация | Регистрация
Хочешь лучшие торренты? Добавь свой email!
Добавить
» » Высотка / High-Rise (2015) BDRemux 1080p от ExKinoRay | iTunes торрент скачать бесплатно




    Высотка / High-Rise (2015) BDRemux 1080p от ExKinoRay | iTunes торрент скачать бесплатно

    Опубликовал: Админ | Дата: 14-07-2016, 05:00 | Просмотров: 37



    Детально о кино
    Русское название: Высотка
    Русское название в мировом прокате: High-Rise
    Создали в: 2015
    Категория жанра: Драма, триллер, фантастика
    Главный режиссер: Бен Уитли

    Актеры
    Том Хиддлстон, Джереми Айронс, Сиенна Миллер, Люк Эванс, Элизабет Мосс, Джеймс Пьюрфой, Кили Хоуз, Питер Фердинандо, Сиенна Гиллори, Рис Шерсмит, Энцо Чиленти, Август Прю, Рентон Скиннер, Стэйси Мартин, Тони Вэй, Лейла Миммек, Луис Сюк, Нил Мэскелл, Александра Уивер, Джулия Дикин

    Сюжет фильма

    Элитная высотка — идеальная модель мира будущего. Здесь есть все для комфортной и роскошной жизни. Но зависть, соперничество, жажда острых ощущений постепенно разжигают открытую вражду между жителями высотки, заставляя забыть о законах морали даже лучших из них.

    Снималось в: Великобритания, Ирландия, Бельгия
    Киностудия: British Film Institute (BFI), Film4, HanWay Films
    Время просмотра: 01: 58: 36
    Перевод текста: Дублированный | iTunes
    Файл
    Кодек для видео: x264
    Качество фильма: BDRemux 1080p
    Информация о видео: 1920x1080, 25.0 Мbit/s, 24.000 fps
    Информация о звуке:
    Информация о звуке #01: 48 kHz, AC3, 5.1, 384 Kbps | Дублированный, iTunes |
    Информация о звуке #02: 48 kHz, DTS-HD MA, 5.1, 2316 kbps | Оригинал |
    Субтитры: Английские
    Релиз подготовил: Автор релиза:
    MI
    General
    Unique ID : 209196887281930933979351360018643314806 (0x9D61DADDEE26508E844D6BBA160E6876)
    Complete name : F: VideoHigh.Rise.2015.D.BDREMUX.1080p.ExKinoRay.mkv
    Format : Matroska
    Format version : Version 4/Version 2
    File size : 23.2 GiB
    Duration : 1h 58mn
    Overall bit rate mode : Variable
    Overall bit rate : 28.0 Mbps
    Movie name : High.Rise.2015.D.BDREMUX.1080p.ExKinoRay
    Encoded date : UTC 2016-07-13 14: 11: 06
    Writing application : mkvmerge v8.3.0 (;Over the Horizon;) 64bit
    Writing library : libebml v1.3.1 + libmatroska v1.4.2
    Video
    ID : 1
    Format : AVC
    Format/Info : Advanced Video Codec
    Format profile : High@L4.1
    Format settings, CABAC : Yes
    Format settings, ReFrames : 3 frames
    Format settings, GOP : M=4, N=24
    Codec ID : V_MPEG4/ISO/AVC
    Duration : 1h 58mn
    Bit rate mode : Variable
    Bit rate : 25.0 Mbps
    Maximum bit rate : 32.0 Mbps
    Width : 1 920 pixels
    Height : 1 080 pixels
    Display aspect ratio : 16: 9
    Frame rate mode : Constant
    Frame rate : 24.000 fps
    Standard : NTSC
    Color space : YUV
    Chroma subsampling : 4: 2: 0
    Bit depth : 8 bits
    Scan type : Progressive
    Bits/(Pixel*Frame) : 0.502
    Stream size : 20.7 GiB (89%)
    Language : English
    Default : Yes
    Forced : No
    Color range : Limited
    Color primaries : BT.709
    Transfer characteristics : BT.709
    Matrix coefficients : BT.709
    Audio #1
    ID : 2
    Format : AC-3
    Format/Info : Audio Coding 3
    Mode extension : CM (complete main)
    Format settings, Endianness : Big
    Codec ID : A_AC3
    Duration : 1h 58mn
    Bit rate mode : Constant
    Bit rate : 640 Kbps
    Channel(s) : 6 channels
    Channel positions : Front: L C R, Side: L R, LFE
    Sampling rate : 48.0 KHz
    Frame rate : 31.250 fps (1536 spf)
    Compression mode : Lossy
    Stream size : 543 MiB (2%)
    Title : DUB iTunes
    Language : Russian
    Default : Yes
    Forced : No
    Audio #2
    ID : 3
    Format : DTS
    Format/Info : Digital Theater Systems
    Format profile : MA/Core
    Mode : 16
    Format settings, Endianness : Big
    Codec ID : A_DTS
    Duration : 1h 58mn
    Bit rate mode : Variable/Constant
    Bit rate : 2 316 Kbps/768 Kbps
    Channel(s) : 6 channels
    Channel positions : Front: L C R, Side: L R, LFE
    Sampling rate : 48.0 KHz
    Frame rate : 93.750 fps (512 spf)
    Bit depth : 24 bits
    Compression mode : Lossless/Lossy
    Stream size : 1.92 GiB (8%)
    Title : Original
    Language : English
    Default : No
    Forced : No
    Text #1
    ID : 4
    Format : UTF-8
    Codec ID : S_TEXT/UTF8
    Codec ID/Info : UTF-8 Plain Text
    Duration : 1h 52mn
    Bit rate : 41 bps
    Count of elements : 1142
    Stream size : 34.2 KiB (0%)
    Title : Full
    Language : English
    Default : No
    Forced : No
    Text #2
    ID : 5
    Format : UTF-8
    Codec ID : S_TEXT/UTF8
    Codec ID/Info : UTF-8 Plain Text
    Duration : 1h 53mn
    Bit rate : 44 bps
    Count of elements : 1119
    Stream size : 37.4 KiB (0%)
    Title : SDH
    Language : English
    Default : No
    Forced : No
    Menu
    00: 00: 00.000 : en: Chapter 1
    00: 09: 46.336 : en: Chapter 2
    00: 16: 54.305 : en: Chapter 3
    00: 25: 52.092 : en: Chapter 4
    00: 32: 45.213 : en: Chapter 5
    00: 37: 26.202 : en: Chapter 6
    00: 45: 49.538 : en: Chapter 7
    00: 53: 31.458 : en: Chapter 8
    00: 58: 18.245 : en: Chapter 9
    01: 07: 21.162 : en: Chapter 10
    01: 13: 46.714 : en: Chapter 11
    01: 19: 51.036 : en: Chapter 12
    01: 26: 40.237 : en: Chapter 13
    01: 33: 12.128 : en: Chapter 14
    01: 40: 24.060 : en: Chapter 15
    01: 46: 18.872 : en: Chapter 16
    Скриншоты


    Онлайн видео Высотка


    Размер скачиваемого торрента: 23.16 GB (24870057427 Bytes)

    Высотка/High-Rise (2015) BDRemux 1080p от ExKinoRay | iTunes
    загрузка...
    Рейтинг →
     (голосов: 1, оценка 5/5, голосовать можно 1 раз )

    Другие торренты по теме:

  • Высотка / High-Rise (2015) WEB-DLRip | D | звук с TS
  • Высотка / High-Rise (2015)
  • Высотка / High-Rise (2015) WEB-DLRip от MegaPeer | P
  • Высотка / High-Rise (2015) WEB-DL 720p | D | Line
  • Высотка / High-Rise (2015) WEB-DLRip ot Portablius | P
  • Высотка / High-Rise (2015) WEB-DL 720p | iTunes
  • Высотка / High-Rise (2015) WEB-DLRip от MegaPeer | iTunes
  • Высотка / High-Rise (2015) WEB-DLRip от Scarabey | iTunes


    • Комментарии (0):

      Информация

      Информация

        Посетители, находящиеся в группе Гости, не могут оставлять комментарии в данной новости.

        ↓ Меню



        ↓ Опрос

        А Вы добавили сайт в закладки?
        Да
        Не


        Top 10 за месяц (Фильмы)