.
Авторизация | Регистрация
Хочешь лучшие торренты? Добавь свой email!
Добавить
» » Цезарь должен умереть / Cesare deve morire (2012) HDTV 1080i от MediaClub | P торрент скачать бесплатно




    Цезарь должен умереть / Cesare deve morire (2012) HDTV 1080i от MediaClub | P торрент скачать бесплатно

    Опубликовал: Админ | Дата: 14-07-2016, 05:00 | Просмотров: 49



    Детально о кино
    Русское название: Цезарь должен умереть
    Русское название в мировом прокате: Cesare deve morire
    Создали в: 2012
    Категория жанра: Драма
    Главный режиссер: Паоло Тавиани, Витторио Тавиани

    Актеры
    Козимо Рега, Сальваторе Стриано, Джованни Аркури, Antonio Frasca, Хуан Дарио Бонетти, Винченцо Галло, Rosario Majorana, Франческо Де Маси, Gennaro Solito, Витторио Паррелла

    Сюжет фильма

    Заканчивается пьеса Шекспира Юлий Цезарь, занавес, бурные овации. Гаснет свет, актеры покидают сцену и… возвращаются в камеры римской тюрьмы строгого режима Ребибия. Камера запечатлела грандиозный эксперимент по постановке спектакля режиссером Фабио Кавалли с заключенными, многие из которых отбывают пожизненный срок. Универсальный язык Шекспира помогает новоявленным актерам понять свои роли, вновь познать дружбу и предательство, власть, обман и насилие — сначала в пьесе, а потом и в своей жизни. И хотя подмостки этой пьесы — тюрьма, в самом фильме она удивительным образом исчезает…
    Актеры в фильме являются настоящими заключенными итальянской тюрьмы, где братья Тавиани проводили кастинг.

    Снималось в: Италия
    Киностудия: Kaos Cinematografica, La Ribalta-Centro Studi Enrico Maria Salerno, Le Talee, Rai Cinema
    Время просмотра: 01: 13: 31
    Перевод текста: Профессиональный многоголосый
    Файл
    Кодек для видео: h.264
    Качество фильма: HDTV 1080i
    Информация о видео: MPEG-4 AVC, ~ 7280 Кбит/с, 1920x1080, 25.000 кадр/с
    Информация о звуке:
    Русский (AC3, 6 ch, 448 Кбит/с)/Профессиональный многоголосый
    Русский (MP2, 2 ch, 192 Кбит/с)/Профессиональный многоголосый
    Субтитры: Нет
    Семпл
    Награды
    Берлинский кинофестиваль, 2012 год
    Победитель (2):
    Золотой Медведь
    Приз экуменического (христианского) жюри (конкурсная программа)

    MI
    Общее
    Идентификатор : 1 (0x1)
    Полное имя : D: uTorrentCezar.dolzhen.umeret.2012.HDTV.1080i.MediaClub.ts
    Формат : MPEG-TS
    Размер файла : 4, 28 Гбайт
    Продолжительность : 1 ч. 13 м.
    Режим общего битрейта : Переменный
    Общий поток : 8339 Кбит/сек
    Видео
    Идентификатор : 3021 (0xBCD)
    Идентификатор меню : 1234 (0x4D2)
    Формат : AVC
    Формат/Информация : Advanced Video Codec
    Профиль формата : Main@L4
    Параметр CABAC формата : Да
    Параметр ReFrames формата : 4 кадра
    Параметр GOP формата : M=1, N=32
    Идентификатор кодека : 27
    Продолжительность : 1 ч. 13 м.
    Битрейт : 7280 Кбит/сек
    Ширина : 1920 пикселей
    Высота : 1080 пикселей
    Соотношение сторон : 16: 9
    Частота кадров : 25, 000 кадров/сек
    Цветовое пространство : YUV
    Субдискретизация насыщенности : 4: 2: 0
    Битовая глубина : 8 бит
    Тип развёртки : Чересстрочная
    Метод сохранения типа развёртки : Раздельные поля
    Порядок развёртки : Верхнее поле первое
    Бит/(Пиксели*Кадры) : 0.140
    Размер потока : 3, 74 Гбайт (87%)
    Цветовой диапазон : Limited
    Основные цвета : BT.709
    Характеристики трансфера : BT.709
    Коэффициенты матрицы : BT.709
    Аудио #1
    Идентификатор : 3022 (0xBCE)
    Идентификатор меню : 1234 (0x4D2)
    Формат : AC-3
    Формат/Информация : Audio Coding 3
    Расширение режима : CM (complete main)
    Параметр Endianness формата : Big
    Идентификатор кодека : 6
    Продолжительность : 1 ч. 13 м.
    Вид битрейта : Постоянный
    Битрейт : 448 Кбит/сек
    Каналы : 6 каналов
    Расположение каналов : Front: L C R, Side: L R, LFE
    Частота : 48, 0 КГц
    Частота кадров : 31, 250 кадров/сек (1536 spf)
    Метод сжатия : С потерями
    Размер потока : 236 Мбайт (5%)
    Язык : Russian
    Аудио #2
    Идентификатор : 3023 (0xBCF)
    Идентификатор меню : 1234 (0x4D2)
    Формат : MPEG Audio
    Версия формата : Version 1
    Профиль формата : Layer 2
    Идентификатор кодека : 3
    Продолжительность : 1 ч. 13 м.
    Вид битрейта : Постоянный
    Битрейт : 192 Кбит/сек
    Каналы : 2 канала
    Частота : 48, 0 КГц
    Метод сжатия : С потерями
    Размер потока : 101 Мбайт (2%)
    Язык : Russian

    Скриншоты

    Релиз подготовил: | Silverok
    Залил: silverina64

    Онлайн видео Цезарь должен умереть


    Размер скачиваемого торрента: 4.28 GB (4598776476 Bytes)

    Цезарь должен умереть/Cesare deve morire (2012) HDTV 1080i от MediaClub | P
    загрузка...
    Рейтинг →
     (голосов: 1, оценка 3/5, голосовать можно 1 раз )

    Другие торренты по теме:

  • Цезарь должен умереть / Cesare deve morire (2012) DVDRip-AVC от Temperet скачать через торрент бесплатно


    • Комментарии (0):

      Информация

      Информация

        Посетители, находящиеся в группе Гости, не могут оставлять комментарии в данной новости.

        ↓ Меню



        ↓ Опрос

        А Вы добавили сайт в закладки?
        Да
        Не


        Top 10 за месяц (Фильмы)