.
Авторизация | Регистрация
» » Бэтмен против Супермена: На заре справедливости / Batman v Superman:Dawn of Just. (2016) BDRip 1080p от ExKinoRay | Расширенная версия | A скачать торрент бесплатно




    Бэтмен против Супермена: На заре справедливости / Batman v Superman:Dawn of Just. (2016) BDRip 1080p от ExKinoRay | Расширенная версия | A скачать торрент бесплатно

    Опубликовал: Админ | Дата: 14-07-2016, 14:19 | Просмотров: 53



    Детально о кино
    Русское название: Бэтмен против Супермена: На заре справедливости
    Русское название в мировом прокате: Batman v Superman: Dawn of Justice
    Создали в: 2016
    Категория жанра: Фантастика, фэнтези, боевик, приключения
    Главный режиссер: Зак Снайдер

    Актеры
    Генри Кавилл, Бен Аффлек, Галь Гадот, Эми Адамс, Джесси Айзенберг, Джереми Айронс, Дайан Лэйн, Лоренс Фишбёрн, Холли Хантер, Скут МакНэйри, Каллэн Мулвей, Тао Окамото, Брэндон Спинк, Лорен Коэн, Алан Д. Первин, Марк Эдвард Тейлор, Хью Магвайр, Майкл Шеннон, Ханна Дворкин, Тиффани Л. Эддисон

    Сюжет фильма

    Битва между Кал-Элом и генералом Зодом наносит множество разрушений Метрополису и соседнему Готэм Сити. Башня Уэйн-тауэр - уничтожена вместе с сотнями невинных людей. Это становится началом конфликта между Последним Сыном Криптона и Темным Рыцарем Готэма, богом и человеком. Тем временем, сумасшедший гений Лекс Лютор готовит оружие Судного дня, способное уничтожить не только богоподобного Супермена, но и все человечество.

    Снималось в: США
    Киностудия: Atlas Entertainment, DC Comics, DC Entertainment, Warner Bros. Pictures
    Время просмотра: 03: 02: 31
    Перевод текста: Авторский | Алексей Матвеев (Doctor Joker)
    Файл
    Кодек для видео: x264
    Качество фильма: BDRip 1080p
    Информация о видео: 1920x800, 11.7 Mbit/s, 23.976 fps
    Информация о звуке:
    Информация о звуке #01: 48 kHz, AC3, 5.1, 640 Kbps | Авторский, Алексей Матвеев (цензура) |
    Информация о звуке #02: 48 kHz, AC3, 5.1, 640 Kbps | Авторский, Алексей Матвеев (без цензуры) |
    Информация о звуке #03: 48 kHz, DTS, 5.1, 1536 Kbps | Авторский, Алексей Матвеев (цензурa) |
    Информация о звуке #04: 48 kHz, DTS, 5.1, 1536 Kbps | Авторский, Алексей Матвеев (без цензуры) |
    Информация о звуке #05: 48 kHz, AC3, 5.1, 640 kbps | Оригинал |
    Субтитры: Русские, английские
    Релиз подготовил: Автор релиза:
    MI
    General
    Unique ID : 217520929167734347402914760629053792506 (0xA3A501D167863DE8AE10AC44E12BA0FA)
    Complete name : F: VideoНовая папка (2)Batman.v.Superman.Dawn.of.Justice.2016.Extended.Ultimate.Edition.BDRip.1080p.ExKinoRay.mkv
    Format : Matroska
    Format version : Version 4/Version 2
    File size : 21.3 GiB
    Duration : 3h 2mn
    Overall bit rate : 16.7 Mbps
    Movie name : Batman.v.Superman.Dawn.of.Justice.2016.Extended.Ultimate.Edition.BDRip.1080p.ExKinoRay
    Encoded date : UTC 2016-07-12 23: 45: 49
    Writing application : mkvmerge v8.3.0 (;Over the Horizon;) 64bit
    Writing library : libebml v1.3.1 + libmatroska v1.4.2
    Video
    ID : 1
    Format : AVC
    Format/Info : Advanced Video Codec
    Format profile : High@L4.1
    Format settings, CABAC : Yes
    Format settings, ReFrames : 5 frames
    Codec ID : V_MPEG4/ISO/AVC
    Duration : 3h 2mn
    Bit rate : 11.7 Mbps
    Width : 1 920 pixels
    Height : 800 pixels
    Display aspect ratio : 2.40: 1
    Frame rate mode : Constant
    Frame rate : 23.976 (24000/1001) fps
    Color space : YUV
    Chroma subsampling : 4: 2: 0
    Bit depth : 8 bits
    Scan type : Progressive
    Bits/(Pixel*Frame) : 0.318
    Stream size : 14.9 GiB (70%)
    Writing library : x264 core 146 r2538 121396c
    Encoding settings : cabac=1/ref=5/deblock=1: -3: -3/analyse=0x3: 0x133/me=tesa/subme=11/psy=1/psy_rd=1.04: 0.00/mixed_ref=1/me_range=32/chroma_me=1/trellis=2/8x8dct=1/cqm=0/deadzone=21, 11/fast_pskip=0/chroma_qp_offset=-2/threads=60/lookahead_threads=6/sliced_threads=0/nr=0/decimate=0/interlaced=0/bluray_compat=0/constrained_intra=0/bframes=12/b_pyramid=2/b_adapt=2/b_bias=0/direct=3/weightb=1/open_gop=0/weightp=2/keyint=240/keyint_min=23/scenecut=40/intra_refresh=0/rc_lookahead=150/rc=crf/mbtree=0/crf=19.0/qcomp=0.60/qpmin=0/qpmax=69/qpstep=4/vbv_maxrate=62500/vbv_bufsize=78125/crf_max=0.0/nal_hrd=none/filler=0/ip_ratio=1.40/pb_ratio=1.30/aq=1: 0.80
    Language : English
    Default : Yes
    Forced : No
    Audio #1
    ID : 2
    Format : AC-3
    Format/Info : Audio Coding 3
    Mode extension : CM (complete main)
    Format settings, Endianness : Big
    Codec ID : A_AC3
    Duration : 3h 2mn
    Bit rate mode : Constant
    Bit rate : 640 Kbps
    Channel(s) : 6 channels
    Channel positions : Front: L C R, Side: L R, LFE
    Sampling rate : 48.0 KHz
    Frame rate : 31.250 fps (1536 spf)
    Compression mode : Lossy
    Stream size : 836 MiB (4%)
    Title : AVO-AC3 Matveev cens.
    Language : Russian
    Default : Yes
    Forced : No
    Audio #2
    ID : 3
    Format : AC-3
    Format/Info : Audio Coding 3
    Mode extension : CM (complete main)
    Format settings, Endianness : Big
    Codec ID : A_AC3
    Duration : 3h 2mn
    Bit rate mode : Constant
    Bit rate : 640 Kbps
    Channel(s) : 6 channels
    Channel positions : Front: L C R, Side: L R, LFE
    Sampling rate : 48.0 KHz
    Frame rate : 31.250 fps (1536 spf)
    Compression mode : Lossy
    Stream size : 836 MiB (4%)
    Title : AVO-AC3 Matveev no cens.
    Language : Russian
    Default : No
    Forced : No
    Audio #3
    ID : 4
    Format : DTS
    Format/Info : Digital Theater Systems
    Mode : 16
    Format settings, Endianness : Big
    Codec ID : A_DTS
    Duration : 3h 2mn
    Bit rate mode : Constant
    Bit rate : 1 536 Kbps
    Channel(s) : 6 channels
    Channel positions : Front: L C R, Side: L R, LFE
    Sampling rate : 48.0 KHz
    Frame rate : 93.750 fps (512 spf)
    Bit depth : 16 bits
    Compression mode : Lossy
    Stream size : 1.96 GiB (9%)
    Title : AVO-DTS Matveev cens.
    Language : Russian
    Default : No
    Forced : No
    Audio #4
    ID : 5
    Format : DTS
    Format/Info : Digital Theater Systems
    Mode : 16
    Format settings, Endianness : Big
    Codec ID : A_DTS
    Duration : 3h 2mn
    Bit rate mode : Constant
    Bit rate : 1 536 Kbps
    Channel(s) : 6 channels
    Channel positions : Front: L C R, Side: L R, LFE
    Sampling rate : 48.0 KHz
    Frame rate : 93.750 fps (512 spf)
    Bit depth : 16 bits
    Compression mode : Lossy
    Stream size : 1.96 GiB (9%)
    Title : AVO-DTS Matveev no cens.
    Language : Russian
    Default : No
    Forced : No
    Audio #5
    ID : 6
    Format : AC-3
    Format/Info : Audio Coding 3
    Mode extension : CM (complete main)
    Format settings, Endianness : Big
    Codec ID : A_AC3
    Duration : 3h 2mn
    Bit rate mode : Constant
    Bit rate : 640 Kbps
    Channel(s) : 6 channels
    Channel positions : Front: L C R, Side: L R, LFE
    Sampling rate : 48.0 KHz
    Frame rate : 31.250 fps (1536 spf)
    Compression mode : Lossy
    Stream size : 836 MiB (4%)
    Title : Original
    Language : English
    Default : No
    Forced : No
    Text #1
    ID : 7
    Format : UTF-8
    Codec ID : S_TEXT/UTF8
    Codec ID/Info : UTF-8 Plain Text
    Duration : 2h 59mn
    Bit rate : 62 bps
    Count of elements : 1060
    Stream size : 82.5 KiB (0%)
    Title : Matveev cens
    Language : Russian
    Default : No
    Forced : No
    Text #2
    ID : 8
    Format : UTF-8
    Codec ID : S_TEXT/UTF8
    Codec ID/Info : UTF-8 Plain Text
    Duration : 2h 59mn
    Bit rate : 62 bps
    Count of elements : 1060
    Stream size : 82.5 KiB (0%)
    Title : Matveev no. cens
    Language : Russian
    Default : No
    Forced : No
    Text #3
    ID : 9
    Format : UTF-8
    Codec ID : S_TEXT/UTF8
    Codec ID/Info : UTF-8 Plain Text
    Duration : 3h 2mn
    Bit rate : 43 bps
    Count of elements : 1914
    Stream size : 58.7 KiB (0%)
    Title : full
    Language : English
    Default : No
    Forced : No
    Text #4
    ID : 10
    Format : UTF-8
    Codec ID : S_TEXT/UTF8
    Codec ID/Info : UTF-8 Plain Text
    Duration : 2h 53mn
    Bit rate : 46 bps
    Count of elements : 1913
    Stream size : 58.5 KiB (0%)
    Title : SDH
    Language : English
    Default : No
    Forced : No
    Menu
    00: 00: 00.000 : en: 00: 00: 00.000
    00: 10: 10.652 : en: 00: 10: 10.652
    00: 27: 00.661 : en: 00: 27: 00.661
    00: 37: 49.225 : en: 00: 37: 49.225
    00: 46: 54.520 : en: 00: 46: 54.520
    01: 02: 04.971 : en: 01: 02: 04.971
    01: 14: 10.613 : en: 01: 14: 10.613
    01: 28: 07.115 : en: 01: 28: 07.115
    01: 41: 46.642 : en: 01: 41: 46.642
    01: 53: 52.617 : en: 01: 53: 52.617
    02: 02: 58.079 : en: 02: 02: 58.079
    02: 15: 04.054 : en: 02: 15: 04.054
    02: 27: 55.075 : en: 02: 27: 55.075
    02: 36: 51.444 : en: 02: 36: 51.444
    02: 48: 27.514 : en: 02: 48: 27.514
    02: 54: 43.765 : en: 02: 54: 43.765
    Скриншоты


    Онлайн видео Бэтмен против Супермена: На заре справедливости


    Размер скачиваемого торрента: 21.29 GB (22858702598 Bytes)

    Бэтмен против Супермена: На заре справедливости/Batman v Superman:Dawn of Just. (2016) BDRip 1080p от ExKinoRay | Расширенная версия | A
    загрузка...
    Рейтинг →
     (голосов: 1, оценка 5/5, голосовать можно 1 раз )

    Другие торренты по теме:



      Комментарии (0):

      Информация

      Информация

        Посетители, находящиеся в группе Гости, не могут оставлять комментарии в данной новости.

        ↓ Меню



        ↓ Опрос

        А Вы добавили сайт в закладки?
        Да
        Не


        Top 10 за неделю (Фильмы)