.
Авторизация | Регистрация
» » Огонь и лёд / De feu et de glace (2008) HDTV 1080i от MediaClub | P скачать торрент бесплатно




    Огонь и лёд / De feu et de glace (2008) HDTV 1080i от MediaClub | P скачать торрент бесплатно

    Опубликовал: Админ | Дата: 15-07-2016, 05:00 | Просмотров: 58



    Детально о кино
    Русское название: Огонь и лёд
    Русское название в мировом прокате: De feu et de glace
    Создали в: 2008
    Категория жанра: Драма, комедия, спорт
    Главный режиссер: Джойс Бунюэль

    Актеры
    Лори, Кристоф Малавуа, Надя Фоссье, Анни Грегорио, Линда Буэенни, Оливье Бенард, Кристиан Раут, Орели Бансийон, Кристоф Жаннель, Стив Чабан

    Сюжет фильма

    Подававшая надежды фигуристка Алексия Морено пытается забыться в вечеринках после травмы, поставившей крест на её карьере. Она прожигает жизнь, пока не встречает Жака Рокеля — тренера, пообещавшего ей возвращение в большой спорт.

    Снималось в: Франция
    Киностудия: AT-Production, Merlin Productions, Radio T?l?vision Belge Francofone (RTBF), T?l?vision Suisse-Romande (TSR), TF1
    Время просмотра: 01: 30: 14
    Перевод текста: Профессиональный многоголосый
    Файл
    Кодек для видео: h.264
    Качество фильма: HDTV 1080i
    Информация о видео: MPEG-4 AVC, ~ 10100 Кбит/с, 1920x1080, 25.000 кадр/с
    Информация о звуке:
    Русский (AC3, 6 ch, 448 Кбит/с)/Профессиональный многоголосый
    Русский (MP2, 2 ch, 192 Кбит/с)/Профессиональный многоголосый
    Субтитры: Нет
    Семпл
    MI
    Общее
    Идентификатор : 1 (0x1)
    Полное имя : D: uTorrentOgon.i.ljed.2008.HDTV.1080p.1080i.MediaClub.ts
    Формат : MPEG-TS
    Размер файла : 7, 10 Гбайт
    Продолжительность : 1 ч. 30 м.
    Режим общего битрейта : Переменный
    Общий поток : 11, 3 Мбит/сек
    Видео
    Идентификатор : 3031 (0xBD7)
    Идентификатор меню : 1234 (0x4D2)
    Формат : AVC
    Формат/Информация : Advanced Video Codec
    Профиль формата : Main@L4
    Параметр CABAC формата : Да
    Параметр ReFrames формата : 4 кадра
    Параметр GOP формата : M=1, N=32
    Идентификатор кодека : 27
    Продолжительность : 1 ч. 30 м.
    Битрейт : 10, 1 Мбит/сек
    Ширина : 1920 пикселей
    Высота : 1080 пикселей
    Соотношение сторон : 16: 9
    Частота кадров : 25, 000 кадров/сек
    Цветовое пространство : YUV
    Субдискретизация насыщенности : 4: 2: 0
    Битовая глубина : 8 бит
    Тип развёртки : Чересстрочная
    Метод сохранения типа развёртки : Раздельные поля
    Порядок развёртки : Верхнее поле первое
    Бит/(Пиксели*Кадры) : 0.194
    Размер потока : 6, 34 Гбайт (89%)
    Цветовой диапазон : Limited
    Основные цвета : BT.709
    Характеристики трансфера : BT.709
    Коэффициенты матрицы : BT.709
    Аудио #1
    Идентификатор : 3032 (0xBD8)
    Идентификатор меню : 1234 (0x4D2)
    Формат : AC-3
    Формат/Информация : Audio Coding 3
    Расширение режима : CM (complete main)
    Параметр Endianness формата : Big
    Идентификатор кодека : 6
    Продолжительность : 1 ч. 30 м.
    Вид битрейта : Постоянный
    Битрейт : 448 Кбит/сек
    Каналы : 6 каналов
    Расположение каналов : Front: L C R, Side: L R, LFE
    Частота : 48, 0 КГц
    Частота кадров : 31, 250 кадров/сек (1536 spf)
    Метод сжатия : С потерями
    Размер потока : 289 Мбайт (4%)
    Язык : Russian
    Аудио #2
    Идентификатор : 3033 (0xBD9)
    Идентификатор меню : 1234 (0x4D2)
    Формат : MPEG Audio
    Версия формата : Version 1
    Профиль формата : Layer 2
    Идентификатор кодека : 3
    Продолжительность : 1 ч. 30 м.
    Вид битрейта : Постоянный
    Битрейт : 192 Кбит/сек
    Каналы : 2 канала
    Частота : 48, 0 КГц
    Метод сжатия : С потерями
    Размер потока : 124 Мбайт (2%)
    Язык : Russian

    Скриншоты

    Релиз подготовил: | Silverok
    Залил: silverina64

    Онлайн видео Огонь и лёд


    Размер скачиваемого торрента: 7.10 GB (7620621548 Bytes)

    Огонь и лёд/De feu et de glace (2008) HDTV 1080i от MediaClub | P
    загрузка...
    Рейтинг →
     (голосов: 1, оценка 4/5, голосовать можно 1 раз )

    Другие торренты по теме:



      Комментарии (0):

      Информация

      Информация

        Посетители, находящиеся в группе Гости, не могут оставлять комментарии в данной новости.

        ↓ Меню



        ↓ Опрос

        А Вы добавили сайт в закладки?
        Да
        Не


        Top 10 за неделю (Фильмы)