.
Авторизация | Регистрация
Хочешь лучшие торренты? Добавь свой email!
Добавить
» » Помнишь меня / Ti ricordi di me (2014) BDRip-AVC | L торрент скачать бесплатно




    Помнишь меня / Ti ricordi di me (2014) BDRip-AVC | L торрент скачать бесплатно

    Опубликовал: Админ | Дата: 17-07-2016, 05:00 | Просмотров: 37



    Детально о кино
    Русское название: Помнишь меня?
    Русское название в мировом прокате: Ti ricordi di me?
    Создали в: 2014
    Категория жанра: мелодрама, комедия
    Главный режиссер: Роландо Равелло

    Актеры
    Амбра Анджолини, Эдоардо Лео, Паоло Калабрези, Сьюзи Лауде, Пиа Энглберс, Эннио Фантастичини, Лоренцо Джоиелли, Анжелика Каваллари

    Сюжет фильма
    Роберто, клептоман с богатым воображением, и Беа, страдающая от расстройства сна и провалов в памяти, случайно встретились у дома своего врача. Маленькие кражи, обмороки и погони — вот фон, на котором протекает их забавная любовная история.

    Снималось в: Италия/Lotus Productions
    Время просмотра: 01: 32: 21
    Перевод текста: Любительский многоголосый СПД
    Файл
    Качество фильма: BDRip-AVC
    Тип видео: MKV
    Информация о видео: AVC, 2500 Kb/s, 1024x424
    Информация о звуке: Russian/Italian: AC3, 448 Kb/s (6 ch)
    Субтитры: нет


    MediaInfo:
    Format : Matroska
    Format version : Version 4/Version 2
    File size : 2.19 GiB
    Duration : 1h 32mn
    Overall bit rate : 3 401 Kbps
    Movie name : Rip by basma4i
    Writing application : XviD4PSP 7.0.279 DAILY
    Writing library : Lavf57.25.100
    ENCODING_INFO : MATROSKA, WEBM MKV/AC3 AC3 CBR 480kbps/AC3 AC3 CBR 480kbps/H264 X264 VBR-2P 2500kbps Произвольный
    MIMETYPE : image/png
    FILENAME : cover.png
    DURATION : 00: 00: 00.000000000
    Attachements : cover.png
    Video
    ID : 1
    Format : AVC
    Format/Info : Advanced Video Codec
    Format profile : Main@L4.1
    Format settings, CABAC : No
    Format settings, ReFrames : 11 frames
    Codec ID : V_MPEG4/ISO/AVC
    Bit rate : 2 500 Kbps
    Width : 1 024 pixels
    Height : 424 pixels
    Display aspect ratio : 2.40: 1
    Original display aspect ratio : 2.40: 1
    Frame rate mode : Variable
    Original frame rate : 23.976 fps
    Color space : YUV
    Chroma subsampling : 4: 2: 0
    Bit depth : 8 bits
    Scan type : Progressive
    Bits/(Pixel*Frame) : 0.240
    Writing library : x264 core 148 r2705M 3f5ed56
    Encoding settings : cabac=0/ref=11/deblock=0: -3: -3/analyse=0x1: 0x131/me=umh/subme=11/psy=1/psy_rd=1.00: 0.20/mixed_ref=1/me_range=32/chroma_me=1/trellis=2/8x8dct=0/cqm=0/deadzone=21, 11/fast_pskip=1/chroma_qp_offset=-3/threads=12/lookahead_threads=3/sliced_threads=0/nr=0/decimate=1/interlaced=0/bluray_compat=0/constrained_intra=0/bframes=11/b_pyramid=2/b_adapt=2/b_bias=11/direct=3/weightb=1/open_gop=0/weightp=2/keyint=230/keyint_min=23/scenecut=60/intra_refresh=0/rc_lookahead=40/rc=2pass/mbtree=1/bitrate=2500/ratetol=1.0/qcomp=0.60/qpmin=1/qpmax=69/qpstep=4/cplxblur=20.0/qblur=0.5/ip_ratio=1.40/aq=1: 1.00
    Default : Yes
    Forced : No
    Color range : Limited
    Color primaries : BT.709
    Transfer characteristics : BT.709
    Matrix coefficients : BT.709
    ENCODING_INFO : x264 -
    DURATION : 01: 32: 20.999000000
    Audio #1
    ID : 2
    Format : AC-3
    Format/Info : Audio Coding 3
    Mode extension : CM (complete main)
    Format settings, Endianness : Big
    Codec ID : A_AC3
    Duration : 1h 32mn
    Bit rate mode : Constant
    Bit rate : 448 Kbps
    Channel(s) : 6 channels
    Channel positions : Front: L C R, Side: L R, LFE
    Sampling rate : 48.0 KHz
    Bit depth : 32 bits
    Compression mode : Lossy
    Stream size : 296 MiB (13%)
    Language : Russian
    Default : Yes
    Forced : No
    DURATION : 01: 32: 21.024000000
    Audio #2
    ID : 3
    Format : AC-3
    Format/Info : Audio Coding 3
    Mode extension : CM (complete main)
    Format settings, Endianness : Big
    Codec ID : A_AC3
    Duration : 1h 32mn
    Bit rate mode : Constant
    Bit rate : 448 Kbps
    Channel(s) : 6 channels
    Channel positions : Front: L C R, Side: L R, LFE
    Sampling rate : 48.0 KHz
    Bit depth : 32 bits
    Compression mode : Lossy
    Stream size : 296 MiB (13%)
    Language : Italian
    Default : No
    Forced : No
    DURATION : 01: 32: 21.024000000
    Скриншоты


    Онлайн видео Помнишь меня


    Размер скачиваемого торрента: 2.19 GB (2355353148 Bytes)

    Помнишь меня/Ti ricordi di me (2014) BDRip-AVC | L
    загрузка...
    Рейтинг →
     (голосов: 1, оценка 4/5, голосовать можно 1 раз )

    Другие торренты по теме:



      Комментарии (0):

      Информация

      Информация

        Посетители, находящиеся в группе Гости, не могут оставлять комментарии в данной новости.

        ↓ Меню



        ↓ Опрос

        А Вы добавили сайт в закладки?
        Да
        Не


        Top 10 за месяц (Фильмы)