.
Авторизация | Регистрация
Хочешь лучшие торренты? Добавь свой email!
Добавить
» » Огненная буря / Firestorm / Fung bou (2013) HDRip-AVC | L2 торрент скачать бесплатно




    Огненная буря / Firestorm / Fung bou (2013) HDRip-AVC | L2 торрент скачать бесплатно

    Опубликовал: Админ | Дата: 17-07-2016, 05:00 | Просмотров: 42



    Создали в: Гонконг, Китай | Edko Films, Focus Films Co. Ltd.
    Категория жанра: Боевик, Криминал
    Время просмотра: 01: 49: 14
    Перевод текста: Любительский (двухголосый, закадровый) - GREEN TEA
    Субтитры: Отсутствуют
    Главный режиссер: Алань Юйэнь
    Актеры: Яо Чэнь, Ка Танг Лам, Энди Лау, Ху Цзюнь, Рэй Луи, Син-Бан Лам, Винсент Сзе, Чи-инь Вонг, Майкл Вонг

    Описание фильма

    Бронированный инкассаторский автомобиль средь бела дня подвергается атаке со стороны банды преступников. Расследованием преступления занимается инспектор Луи Мин Чит, который руководит спецотрядом. Однако не так то просто схватить вооруженных до зубов головорезов, поэтому Луи решает пойти на сделку с Синг Понгом, обещая освободить его из тюрьмы, если он поможет схватить своих бывших подельников. Помимо этих событий к городу приближается шторм катастрофической силы..
    Качество фильма видео: HDRip
    Информация о видео: AVC, 1024x428 (2.35: 1), 24.000 fps, 2 475 Kbps (0.235 bit/pixel)
    Информация о звуке: AC-3, 48.0 KHz, 2 ch, 384 Kbp
    Mediainfo:

    Формат : Matroska
    Версия формата : Version 2
    Размер файла : 2, 18 Гбайт
    Продолжительность : 1 ч. 49 м.
    Общий поток : 2861 Кбит/сек
    Дата кодирования : UTC 2016-07-14 06: 58: 08
    Программа кодирования : mkvmerge v5.3.0 (;I could have danced;) built on Feb 9 2012 10: 38: 07
    Библиотека кодирования : libebml v1.2.3 + libmatroska v1.3.0
    Attachment : Yes
    Видео
    Идентификатор : 1
    Формат : AVC
    Формат/Информация : Advanced Video Codec
    Профиль формата : High@L4.1
    Параметр CABAC формата : Да
    Параметр ReFrames формата : 10 кадров
    Идентификатор кодека : V_MPEG4/ISO/AVC
    Продолжительность : 1 ч. 49 м.
    Битрейт : 2475 Кбит/сек
    Ширина : 1024 пикселя
    Высота : 428 пикселей
    Соотношение сторон : 2, 40: 1
    Режим частоты кадров : Постоянный
    Частота кадров : 24, 000 кадра/сек
    Цветовое пространство : YUV
    Субдискретизация насыщенности : 4: 2: 0
    Битовая глубина : 8 бит
    Тип развёртки : Прогрессивная
    Бит/(Пиксели*Кадры) : 0.235
    Размер потока : 1, 85 Гбайт (85%)
    Библиотека кодирования : x264 core 146 r2538 121396c
    Настройки программы : cabac=1/ref=10/deblock=1: -3: -3/analyse=0x3: 0x133/me=umh/subme=10/psy=1/psy_rd=1.00: 0.15/mixed_ref=1/me_range=32/chroma_me=1/trellis=2/8x8dct=1/cqm=0/deadzone=21, 11/fast_pskip=0/chroma_qp_offset=-3/threads=12/lookahead_threads=2/sliced_threads=0/nr=0/decimate=0/interlaced=0/bluray_compat=0/constrained_intra=0/bframes=8/b_pyramid=2/b_adapt=2/b_bias=0/direct=3/weightb=1/open_gop=0/weightp=2/keyint=240/keyint_min=23/scenecut=40/intra_refresh=0/rc_lookahead=40/rc=2pass/mbtree=0/bitrate=2475/ratetol=1.0/qcomp=0.60/qpmin=0/qpmax=69/qpstep=4/cplxblur=20.0/qblur=0.5/vbv_maxrate=50000/vbv_bufsize=62500/nal_hrd=none/filler=0/ip_ratio=1.40/pb_ratio=1.30/aq=1: 0.70
    Default : Да
    Forced : Нет
    Аудио
    Идентификатор : 2
    Формат : AC-3
    Формат/Информация : Audio Coding 3
    Расширение режима : CM (complete main)
    Параметр Endianness формата : Big
    Идентификатор кодека : A_AC3
    Продолжительность : 1 ч. 49 м.
    Вид битрейта : Постоянный
    Битрейт : 384 Кбит/сек
    Каналы : 2 канала
    Расположение каналов : Front: L R
    Частота : 48, 0 КГц
    Битовая глубина : 16 бит
    Метод сжатия : С потерями
    Размер потока : 300 Мбайт (13%)
    Default : Да
    Forced : Нет

    Скриншоты:


    Онлайн видео Огненная буря


    Размер скачиваемого торрента: 2.18 GB (2344221160 Bytes)

    Огненная буря/Firestorm/Fung bou (2013) HDRip-AVC | L2
    загрузка...
    Рейтинг →
     (голосов: 1, оценка 4/5, голосовать можно 1 раз )

    Другие торренты по теме:

  • Огненная буря / Firestorm / Fung bou (2013) HDTVRip | L2 скачать через торрент бесплатно
  • Огненная буря / Firestorm / Fung bou (2013) HDTV 720p | L2
  • S.W.A.T.: Огненная буря / S.W.A.T.: Firefight (2011) BDRip от Rulya74 | P. L2
  • Огненная буря / Firestorm / Fung bou (2013) BDRip 1080p от CINEMANIA | L2
  • Огненная буря / Firestorm / Fung bou (2013) BDRip 720p | L2
  • Огненная буря / Firestorm / Fung bou (2013) HDRip | L2
  • Огненная буря / Firestorm (2013) HDRip от Assassins Creed | КПК
  • Огненная буря / Firestorm (2013) HDRip от Assassins Creed


    • Комментарии (0):

      Информация

      Информация

        Посетители, находящиеся в группе Гости, не могут оставлять комментарии в данной новости.

        ↓ Меню



        ↓ Опрос

        А Вы добавили сайт в закладки?
        Да
        Не


        Top 10 за месяц (Фильмы)