.
Авторизация | Регистрация
» » Преступник / Criminal (2016) BDRemux 1080p от ExKinoRay | iTunes скачать торрент бесплатно




    Преступник / Criminal (2016) BDRemux 1080p от ExKinoRay | iTunes скачать торрент бесплатно

    Опубликовал: Админ | Дата: 17-07-2016, 05:00 | Просмотров: 61



    Детально о кино
    Русское название: Преступник
    Русское название в мировом прокате: Criminal
    Создали в: 2016
    Категория жанра: Фантастика, боевик, триллер, драма, криминал, детектив
    Главный режиссер: Ариэль Вромен

    Актеры
    Кевин Костнер, Гэри Олдман, Томми Ли Джонс, Райан Рейнольдс, Элис Ив, Галь Гадот, Хорди Молья, Майкл Питт, Амори Ноласко, Антье Трауэ, Скотт Эдкинс, Лара Дэкаро, Фредди Бош, Эммануэль Имани, Гарри Хэппл, Даг Кокл, Колин Сэлмон, Стив Николсон, Сопе Дирису, Джизелла Маренго

    Сюжет фильма

    В последней отчаянной попытке остановить катастрофу мирового масштаба генетики осуществляют невероятную операцию по вживлению воспоминаний и умений погибшего оперативника ЦРУ в тело опасного заключенного с надеждой, что тот доведет до конца прерванную миссию агента.

    Снималось в: Великобритания, США
    Киностудия: BenderSpink, Campbell Grobman Films, Lionsgate
    Время просмотра: 01: 53: 34
    Перевод текста: Дублированный | iTunes
    Файл
    Кодек для видео: MPEG-4
    Качество фильма: BDRemux 1080p
    Информация о видео: 1920x1080, 31.5 Mbit/s, 23.976 fps
    Информация о звуке:
    Информация о звуке #01: 48 kHz, AC3, 5.1, 384 Kbps | Дублированный, iTunes |
    Информация о звуке #02: 48 kHz, DTS-HD MA, 5.1, 3614 kbps | Оригинал |
    Субтитры: Английские
    MI
    General
    Unique ID : 208789166063882651155145726484184440104 (0x9D1354A8A9F644FF9CEFF0D3E09A1D28)
    Complete name : F: VideoCriminal.2016.D.BDREMUX..1080p.ExKinoRay.mkv
    Format : Matroska
    Format version : Version 4/Version 2
    File size : 28.1 GiB
    Duration : 1h 53mn
    Overall bit rate mode : Variable
    Overall bit rate : 35.5 Mbps
    Movie name : Criminal.2016.D.BDREMUX..1080p.ExKinoRay
    Encoded date : UTC 2016-07-16 18: 50: 01
    Writing application : mkvmerge v8.3.0 (;Over the Horizon;) 64bit
    Writing library : libebml v1.3.1 + libmatroska v1.4.2
    Video
    ID : 1
    Format : AVC
    Format/Info : Advanced Video Codec
    Format profile : High@L4.1
    Format settings, CABAC : Yes
    Format settings, ReFrames : 4 frames
    Codec ID : V_MPEG4/ISO/AVC
    Duration : 1h 53mn
    Bit rate mode : Variable
    Bit rate : 31.5 Mbps
    Maximum bit rate : 37.0 Mbps
    Width : 1 920 pixels
    Height : 1 080 pixels
    Display aspect ratio : 16: 9
    Frame rate mode : Constant
    Frame rate : 23.976 (24000/1001) fps
    Color space : YUV
    Chroma subsampling : 4: 2: 0
    Bit depth : 8 bits
    Scan type : Progressive
    Bits/(Pixel*Frame) : 0.633
    Stream size : 25.0 GiB (89%)
    Language : English
    Default : Yes
    Forced : No
    Audio #1
    ID : 2
    Format : AC-3
    Format/Info : Audio Coding 3
    Mode extension : CM (complete main)
    Format settings, Endianness : Big
    Codec ID : A_AC3
    Duration : 1h 53mn
    Bit rate mode : Constant
    Bit rate : 384 Kbps
    Channel(s) : 6 channels
    Channel positions : Front: L C R, Side: L R, LFE
    Sampling rate : 48.0 KHz
    Frame rate : 31.250 fps (1536 spf)
    Compression mode : Lossy
    Stream size : 312 MiB (1%)
    Title : DUB iTunes
    Language : Russian
    Default : Yes
    Forced : No
    Audio #2
    ID : 3
    Format : DTS
    Format/Info : Digital Theater Systems
    Format profile : MA/Core
    Mode : 16
    Format settings, Endianness : Big
    Codec ID : A_DTS
    Duration : 1h 53mn
    Bit rate mode : Variable/Constant
    Bit rate : 3 614 Kbps/1 509 Kbps
    Channel(s) : 6 channels
    Channel positions : Front: L C R, Side: L R, LFE
    Sampling rate : 48.0 KHz
    Frame rate : 93.750 fps (512 spf)
    Bit depth : 24 bits
    Compression mode : Lossless/Lossy
    Stream size : 2.87 GiB (10%)
    Title : Original
    Language : English
    Default : No
    Forced : No
    Text #1
    ID : 4
    Format : UTF-8
    Codec ID : S_TEXT/UTF8
    Codec ID/Info : UTF-8 Plain Text
    Duration : 1h 43mn
    Bit rate : 41 bps
    Count of elements : 1016
    Stream size : 31.5 KiB (0%)
    Title : Full
    Language : English
    Default : No
    Forced : No
    Text #2
    ID : 5
    Format : UTF-8
    Codec ID : S_TEXT/UTF8
    Codec ID/Info : UTF-8 Plain Text
    Duration : 1h 43mn
    Bit rate : 48 bps
    Count of elements : 1276
    Stream size : 37.3 KiB (0%)
    Title : SDH
    Language : English
    Default : No
    Forced : No
    Menu
    00: 00: 00.000 : en: Chapter 1
    00: 10: 41.266 : en: Chapter 2
    00: 15: 32.265 : en: Chapter 3
    00: 23: 45.340 : en: Chapter 4
    00: 30: 56.563 : en: Chapter 5
    00: 36: 01.367 : en: Chapter 6
    00: 45: 36.317 : en: Chapter 7
    00: 48: 48.509 : en: Chapter 8
    00: 54: 51.455 : en: Chapter 9
    01: 01: 46.244 : en: Chapter 10
    01: 08: 32.608 : en: Chapter 11
    01: 16: 11.609 : en: Chapter 12
    01: 22: 20.143 : en: Chapter 13
    01: 29: 52.011 : en: Chapter 14
    01: 36: 46.092 : en: Chapter 15
    01: 42: 08.497 : en: Chapter 16
    Скриншоты

    Релиз подготовил: Автор релиза:

    Онлайн видео Преступник


    Размер скачиваемого торрента: 28.13 GB (30201347787 Bytes)

    Преступник/Criminal (2016) BDRemux 1080p от ExKinoRay | iTunes
    загрузка...
    Рейтинг →
     (голосов: 1, оценка 5/5, голосовать можно 1 раз )

    Другие торренты по теме:

  • Мыслить как преступник / Criminal Minds (2012) WEB-DLRip | Fox Crime торрент скачать бесплатно
  • Мыслить как преступник / Criminal Minds (2010-2011) WEB-DLRip | Fox Crime торрент скачать бесплатно
  • Мыслить как преступник / Criminal Minds (2005-2012) WEB-DLRip | P скачать через торрент бесплатно
  • Мыслить как преступник / Criminal Minds (2013) WEB-DLRip | Fox скачать через торрент бесплатно
  • Мыслить как преступник / Criminal Minds (2013) WEB-DLRip | Fox торрент скачать бесплатно
  • Мыслить как преступник / Criminal Minds (2005-2014) WEB-DLRip | P торрент скачать бесплатно
  • Мыслить как преступник / Criminal Minds (2014) WEB-DL 720p от MediaClub | P | Fox скачать через торрент бесплатно
  • Мыслить как преступник / Criminal Minds (2014) WEB-DLRip от MediaClub | P | Fox торрент скачать бесплатно


    • Комментарии (0):

      Информация

      Информация

        Посетители, находящиеся в группе Гости, не могут оставлять комментарии в данной новости.

        ↓ Меню



        ↓ Опрос

        А Вы добавили сайт в закладки?
        Да
        Не


        Top 10 за неделю (Фильмы)