.
Авторизация | Регистрация
Хочешь лучшие торренты? Добавь свой email!
Добавить
» » Бэтмен против Супермена: На заре справедливости / Batman v Superman: Dawn of Justice (2016) BDRemux 1080p от ExKinoRay | Theatrical Cut | Лицензия торрент скачать бесплатно




    Бэтмен против Супермена: На заре справедливости / Batman v Superman: Dawn of Justice (2016) BDRemux 1080p от ExKinoRay | Theatrical Cut | Лицензия торрент скачать бесплатно

    Опубликовал: Админ | Дата: 17-07-2016, 05:00 | Просмотров: 63



    Детально о кино
    Русское название: Бэтмен против Супермена: На заре справедливости
    Русское название в мировом прокате: Batman v Superman: Dawn of Justice
    Создали в: 2016
    Категория жанра: Фантастика, фэнтези, боевик, приключения
    Главный режиссер: Зак Снайдер

    Актеры
    Генри Кавилл, Бен Аффлек, Галь Гадот, Эми Адамс, Джесси Айзенберг, Джереми Айронс, Дайан Лэйн, Лоренс Фишбёрн, Холли Хантер, Скут МакНэйри, Каллэн Мулвей, Тао Окамото, Брэндон Спинк, Лорен Коэн, Алан Д. Первин, Марк Эдвард Тейлор, Хью Магвайр, Майкл Шеннон, Ханна Дворкин, Тиффани Л. Эддисон

    Сюжет фильма

    Битва между Кал-Элом и генералом Зодом наносит множество разрушений Метрополису и соседнему Готэм Сити. Башня Уэйн-тауэр - уничтожена вместе с сотнями невинных людей. Это становится началом конфликта между Последним Сыном Криптона и Темным Рыцарем Готэма, богом и человеком. Тем временем, сумасшедший гений Лекс Лютор готовит оружие Судного дня, способное уничтожить не только богоподобного Супермена, но и все человечество.

    Снималось в: США
    Киностудия: Atlas Entertainment, DC Comics, DC Entertainment, Warner Bros. Pictures
    Время просмотра: 02: 31: 41
    Перевод текста: Дублированный | Лицензия
    Файл
    Кодек для видео: MPEG-4
    Качество фильма: BDRemux 1080p
    Информация о видео: 1920x1080, 21.0 Mbit/s, 23.976 fps
    Информация о звуке:
    Информация о звуке #01: 48 kHz, AC3, 5.1, 448 Kbps | Дублированный, Лицензия |
    Информация о звуке #02: 48 kHz, TrueHD, 7.1, 5174 kbps | Оригинал |
    Субтитры: Русские (forced, full), английские (srt, SDH)
    MI
    General
    Unique ID : 243481438528543237275853982711858867383 (0xB72CD1C008C4BF90B9C45A56E2382CB7)
    Complete name : F: VideoBatman.V.Superman.Dawn.Of.Justice.2016.THEATRICAL.D.BDREMUX.1080p.ExKinoRay.mkv
    Format : Matroska
    Format version : Version 4/Version 2
    File size : 28.3 GiB
    Duration : 2h 31mn
    Overall bit rate mode : Variable
    Overall bit rate : 26.7 Mbps
    Movie name : Batman.V.Superman.Dawn.Of.Justice.2016.THEATRICAL.D.BDREMUX.1080p.ExKinoRay
    Encoded date : UTC 2016-07-16 21: 32: 56
    Writing application : mkvmerge v8.3.0 (;Over the Horizon;) 64bit
    Writing library : libebml v1.3.1 + libmatroska v1.4.2
    Video
    ID : 1
    Format : AVC
    Format/Info : Advanced Video Codec
    Format profile : High@L4.1
    Format settings, CABAC : Yes
    Format settings, ReFrames : 2 frames
    Codec ID : V_MPEG4/ISO/AVC
    Duration : 2h 31mn
    Bit rate mode : Variable
    Bit rate : 21.0 Mbps
    Width : 1 920 pixels
    Height : 1 080 pixels
    Display aspect ratio : 16: 9
    Frame rate mode : Constant
    Frame rate : 23.976 (24000/1001) fps
    Color space : YUV
    Chroma subsampling : 4: 2: 0
    Bit depth : 8 bits
    Scan type : Progressive
    Bits/(Pixel*Frame) : 0.423
    Stream size : 22.3 GiB (79%)
    Language : English
    Default : Yes
    Forced : No
    Audio #1
    ID : 2
    Format : AC-3
    Format/Info : Audio Coding 3
    Mode extension : CM (complete main)
    Format settings, Endianness : Big
    Codec ID : A_AC3
    Duration : 2h 31mn
    Bit rate mode : Constant
    Bit rate : 448 Kbps
    Channel(s) : 6 channels
    Channel positions : Front: L C R, Side: L R, LFE
    Sampling rate : 48.0 KHz
    Frame rate : 31.250 fps (1536 spf)
    Compression mode : Lossy
    Stream size : 486 MiB (2%)
    Title : DUB Blu-ray CEE
    Language : Russian
    Default : Yes
    Forced : No
    Audio #2
    ID : 3
    Format : Atmos/TrueHD
    Codec ID : A_TRUEHD
    Duration : 2h 31mn
    Bit rate mode : Variable
    Bit rate : 5 174 Kbps
    Maximum bit rate : 8 199 Kbps
    Channel(s) : Object Based/8 channels
    Channel positions : Object Based/Front: L C R, Side: L R, Back: L R, LFE
    Sampling rate : /48.0 KHz
    Frame rate : 1 200.000 fps (40 spf)
    Compression mode : Lossless
    Stream size : 5.48 GiB (19%)
    Title : Original
    Language : English
    Default : No
    Forced : No
    Text #1
    ID : 4
    Format : UTF-8
    Codec ID : S_TEXT/UTF8
    Codec ID/Info : UTF-8 Plain Text
    Duration : 2h 30mn
    Bit rate : 4 bps
    Count of elements : 100
    Stream size : 4.72 KiB (0%)
    Title : Forced iTunes
    Language : Russian
    Default : Yes
    Forced : No
    Text #2
    ID : 5
    Format : UTF-8
    Codec ID : S_TEXT/UTF8
    Codec ID/Info : UTF-8 Plain Text
    Duration : 2h 31mn
    Bit rate : 57 bps
    Count of elements : 1293
    Stream size : 63.8 KiB (0%)
    Title : Full iTunes
    Language : Russian
    Default : No
    Forced : No
    Text #3
    ID : 6
    Format : UTF-8
    Codec ID : S_TEXT/UTF8
    Codec ID/Info : UTF-8 Plain Text
    Duration : 2h 22mn
    Bit rate : 35 bps
    Count of elements : 1149
    Stream size : 36.7 KiB (0%)
    Title : Full
    Language : English
    Default : No
    Forced : No
    Text #4
    ID : 7
    Format : UTF-8
    Codec ID : S_TEXT/UTF8
    Codec ID/Info : UTF-8 Plain Text
    Duration : 2h 31mn
    Bit rate : 39 bps
    Count of elements : 1474
    Stream size : 43.5 KiB (0%)
    Title : SDH
    Language : English
    Default : No
    Forced : No
    Menu
    00: 00: 00.000 : en: 00: 00: 00.000
    00: 09: 50.048 : en: 00: 09: 50.048
    00: 20: 45.786 : en: 00: 20: 45.786
    00: 29: 58.672 : en: 00: 29: 58.672
    00: 38: 46.616 : en: 00: 38: 46.616
    00: 49: 25.921 : en: 00: 49: 25.921
    00: 59: 21.558 : en: 00: 59: 21.558
    01: 10: 06.202 : en: 01: 10: 06.202
    01: 21: 15.120 : en: 01: 21: 15.120
    01: 30: 00.312 : en: 01: 30: 00.312
    01: 38: 20.812 : en: 01: 38: 20.812
    01: 49: 57.382 : en: 01: 49: 57.382
    02: 01: 49.052 : en: 02: 01: 49.052
    02: 10: 40.416 : en: 02: 10: 40.416
    02: 18: 41.313 : en: 02: 18: 41.313
    02: 23: 50.372 : en: 02: 23: 50.372
    Скриншоты

    Релиз подготовил: Автор релиза:

    Онлайн видео Бэтмен против Супермена: На заре справедливости


    Размер скачиваемого торрента: 28.29 GB (30380054845 Bytes)

    Бэтмен против Супермена: На заре справедливости/Batman v Superman: Dawn of Justice (2016) BDRemux 1080p от ExKinoRay | Theatrical Cut | Лицензия
    загрузка...
    Рейтинг →
     (голосов: 1, оценка 5/5, голосовать можно 1 раз )

    Другие торренты по теме:

  • Бэтмен против Дракулы / The Batman vs Dracula: The Animated Movie (2005) WEB-DLRip от Deadmauvlad | D | iTunes
  • Бэтмен против Робина / Batman vs. Robin (2015) HDRip | L
  • Бэтмен против Робина / Batman vs. Robin (2015) WEB-DL 1080p | L1
  • Бэтмен против Робина / Batman vs. Robin (2015) HDRip | L1
  • Бэтмен против Робина / Batman vs. Robin (2015) WEB-DLRip | Sub
  • Бэтмен против Супермена: На заре справедливости / Batman v Superman: Dawn of Justice (2016) DCPrip | 2K, Hi10P | Тизер-трейлер
  • Бэтмен против Робина / Batman vs. Robin (2015) BDRemux 1080p
  • Бэтмен против Супермена: На заре справедливости / Batman v Superman: Dawn of Justice (2016) WEBRip 1080p | Трейлер#3


    • Комментарии (0):

      Информация

      Информация

        Посетители, находящиеся в группе Гости, не могут оставлять комментарии в данной новости.

        ↓ Меню



        ↓ Опрос

        А Вы добавили сайт в закладки?
        Да
        Не


        Top 10 за месяц (Фильмы)