.
Авторизация | Регистрация
Хочешь лучшие торренты? Добавь свой email!
Добавить
» » Сюрприз старины Неда / Waking Ned (1998) BDRip 1080p | P2 торрент скачать бесплатно




    Сюрприз старины Неда / Waking Ned (1998) BDRip 1080p | P2 торрент скачать бесплатно

    Опубликовал: Админ | Дата: 18-07-2016, 05:00 | Просмотров: 33



    Детально о кино
    Русское название: Сюрприз старины Неда
    Русское название в мировом прокате: Waking Ned
    Создали в: 1998
    Категория жанра: комедия
    Главный режиссер: Кирк Джонс

    Актеры
    Иэн Бэннен, Дэвид Келли, Финола Флэнаган, Сьюзэн Линч, Джеймс Несбитт, Пол Вон, Адриан Робинсон, Мойра О’Мэлли, Роберт Хикки, Пэдди Уорд

    Сюжет фильма

    Джеки О’Ши, житель маленькой ирландской деревушки, узнает, что один из его соседей выиграл в лотерею 7 миллионов фунтов. Счастливчиком оказался Нед Девайн. К сожалению, получить выигрыш будет довольно затруднительно — от радости Нед умер.
    Джеки и его лучший друг Майкл очень хотят, чтобы Нед поделился с ними своим богатством, во всяком случае, живой Нед поступил бы именно так. Но все оказывается гораздо сложнее, чем могли себе представить два приятеля.
    Чтобы убедить представителя лотерейной комиссии в том, что Нед Девайн жив, им придется вовлечь в свой план всю деревню…

    Снималось в: Великобритания, Ирландия, Франция, США
    Киностудия: Bonaparte Films Ltd., Canal+ fr, Gruber Bros, Isle of Man Film Commission, Mainstream S.A., Overseas FilmGroup, Tomboy Films
    Время просмотра: 01: 31: 18
    Перевод текста: Профессиональный (двухголосый, закадровый) R5 Twister
    Файл
    Тип видео: Matroska
    Информация о видео: 1920х816 at 23.976 fps, x264@L4.1, ~10500 kbps avg
    Информация о звуке#1: Russian: 48 kHz, AC3 Dolby Digital, 3/2 (L, C, R, l, r) + LFE ch, ~384 kbps avg |Двухголосый закадровый, R5 Twister|
    Информация о звуке#2: English: 48 kHz, AC3 Dolby Digital, 3/2 (L, C, R, l, r) + LFE ch, ~448 kbps avg
    Субтитры: Russian, English, German, Portuguese
    MI
    Общее
    Уникальный идентификатор : 202828233045040551779740039201070205105 (0x98974BF8637CE4AFA597304E3B5348B1)
    Полное имя : Waking NedWaking.Ned.1998.BDRip.(1080p).mkv
    Формат : Matroska
    Версия формата : Version 4/Version 2
    Размер файла : 7, 23 Гбайт
    Продолжительность : 1 ч. 31 м.
    Общий поток : 11, 3 Мбит/сек
    Название фильма : Waking Ned (1998)
    Дата кодирования : UTC 2016-07-17 13: 08: 24
    Программа кодирования : mkvmerge v6.9.1 (;Blue Panther;) 64bit built on Apr 18 2014 18: 23: 38
    Библиотека кодирования : libebml v1.3.0 + libmatroska v1.4.1
    Видео
    Идентификатор : 1
    Формат : AVC
    Формат/Информация : Advanced Video Codec
    Профиль формата : High@L4.1
    Параметр CABAC формата : Да
    Параметр ReFrames формата : 5 кадров
    Идентификатор кодека : V_MPEG4/ISO/AVC
    Продолжительность : 1 ч. 31 м.
    Битрейт : 10, 5 Мбит/сек
    Ширина : 1920 пикселей
    Высота : 816 пикселей
    Соотношение сторон : 2, 35: 1
    Режим частоты кадров : Постоянный
    Частота кадров : 23, 976 кадра/сек
    Цветовое пространство : YUV
    Субдискретизация насыщенности : 4: 2: 0
    Битовая глубина : 8 бит
    Тип развёртки : Прогрессивная
    Бит/(Пиксели*Кадры) : 0.280
    Размер потока : 6, 55 Гбайт (91%)
    Заголовок : Waking Ned (1998)
    Библиотека кодирования : x264 core 130 r2273 b3065e6
    Настройки программы : cabac=1/ref=5/deblock=1: -3: -3/analyse=0x3: 0x133/me=umh/subme=11/psy=1/psy_rd=1.00: 0.10/mixed_ref=1/me_range=32/chroma_me=1/trellis=2/8x8dct=1/cqm=0/deadzone=21, 11/fast_pskip=1/chroma_qp_offset=-3/threads=6/lookahead_threads=1/sliced_threads=0/nr=0/decimate=1/interlaced=0/bluray_compat=0/constrained_intra=0/bframes=3/b_pyramid=2/b_adapt=2/b_bias=0/direct=3/weightb=1/open_gop=0/weightp=2/keyint=250/keyint_min=23/scenecut=40/intra_refresh=0/rc_lookahead=60/rc=2pass/mbtree=1/bitrate=10500/ratetol=1.0/qcomp=0.60/qpmin=0/qpmax=69/qpstep=4/cplxblur=20.0/qblur=0.5/ip_ratio=1.40/aq=1: 1.00
    Язык : English
    Default : Да
    Forced : Нет
    Аудио #1
    Идентификатор : 2
    Формат : AC-3
    Формат/Информация : Audio Coding 3
    Расширение режима : CM (complete main)
    Параметр Endianness формата : Big
    Идентификатор кодека : A_AC3
    Продолжительность : 1 ч. 31 м.
    Вид битрейта : Постоянный
    Битрейт : 384 Кбит/сек
    Каналы : 6 каналов
    Расположение каналов : Front: L C R, Side: L R, LFE
    Частота : 48, 0 КГц
    Метод сжатия : С потерями
    Размер потока : 251 Мбайт (3%)
    Заголовок : AC3, 6 ch, 384 Kbps, MVO
    Язык : Russian
    Default : Да
    Forced : Нет
    Аудио #2
    Идентификатор : 3
    Формат : AC-3
    Формат/Информация : Audio Coding 3
    Расширение режима : CM (complete main)
    Параметр Endianness формата : Big
    Идентификатор кодека : A_AC3
    Продолжительность : 1 ч. 31 м.
    Вид битрейта : Постоянный
    Битрейт : 448 Кбит/сек
    Каналы : 6 каналов
    Расположение каналов : Front: L C R, Side: L R, LFE
    Частота : 48, 0 КГц
    Метод сжатия : С потерями
    Размер потока : 293 Мбайт (4%)
    Заголовок : AC3, 6 ch, 448 Kbps, Original
    Язык : English
    Default : Нет
    Forced : Нет
    Текст #1
    Идентификатор : 4
    Формат : UTF-8
    Идентификатор кодека : S_TEXT/UTF8
    Идентификатор кодека/Информация : UTF-8 Plain Text
    Язык : Russian
    Default : Нет
    Forced : Нет
    Текст #2
    Идентификатор : 5
    Формат : UTF-8
    Идентификатор кодека : S_TEXT/UTF8
    Идентификатор кодека/Информация : UTF-8 Plain Text
    Язык : English
    Default : Нет
    Forced : Нет
    Текст #3
    Идентификатор : 6
    Формат : UTF-8
    Идентификатор кодека : S_TEXT/UTF8
    Идентификатор кодека/Информация : UTF-8 Plain Text
    Язык : German
    Default : Нет
    Forced : Нет
    Текст #4
    Идентификатор : 7
    Формат : UTF-8
    Идентификатор кодека : S_TEXT/UTF8
    Идентификатор кодека/Информация : UTF-8 Plain Text
    Язык : Portuguese
    Default : Нет
    Forced : Нет
    Меню
    00: 00: 00.000 : en: Lottery Night
    00: 04: 02.000 : en: Main Titles
    00: 05: 14.000 : en: A Winner in the Village
    00: 07: 57.000 : en: Looking for the Lucky One
    00: 14: 26.000 : en: Pig and Maggie
    00: 18: 33.000 : en: The Chicken Supper Party
    00: 23: 07.000 : en: The Winner
    00: 25: 42.000 : en: A Prayer for Ned
    00: 27: 46.000 : en: Jackie;s Vision
    00: 29: 26.000 : en: The Winning Smile
    00: 40: 01.000 : en: Finn;s Rival
    00: 40: 13.000 : en: Meeting Ned Devine
    00: 48: 59.000 : en: A Shock to the System
    00: 53: 05.000 : en: Things Get Serious
    00: 59: 43.000 : en: A Nest Egg for Us All
    01: 02: 54.000 : en: A Drink and a Deal
    01: 08: 45.000 : en: The Last Holdout
    01: 11: 12.000 : en: The Funeral
    01: 15: 55.000 : en: Eulogy for a Friend
    01: 18: 43.000 : en: The Check
    01: 21: 16.000 : en: Lizzy;s Long Distance Call
    01: 24: 23.000 : en: Ned;s Only Heir
    01: 25: 53.000 : en: Spirits to the Sky
    01: 27: 55.000 : en: End Titles
    Скриншоты



    Онлайн видео Сюрприз старины Неда


    Размер скачиваемого торрента: 7.23 GB (7759639474 Bytes)

    Сюрприз старины Неда/Waking Ned (1998) BDRip 1080p | P2
    загрузка...
    Рейтинг →
     (голосов: 1, оценка 4/5, голосовать можно 1 раз )

    Другие торренты по теме:

  • Маша и медведь: Сюрприз! Сюрприз! (2017) WEB-DLRip-AVC от ExKinoRay
  • Маша и медведь: Сюрприз! Сюрприз! (2017) WEB-DLRip от GeneralFilm
  • Маша и медведь: Сюрприз! Сюрприз! (2017) WEB-DL 1080p от GeneralFilm
  • Сюрприз для любимого скачать через торрент бесплатно
  • Шанхайский сюрприз / Shanghai Surprise (1986) HDTVRip-AVC
  • Сюрприз для любимого (2014) WEB-DLRip от Generalfilm
  • Сюрприз / De Surprise (2015) WEBRip 1080p | Трейлер
  • Сюрприз / De Surprise (2015) WEB-DL 720p | Чистый звук


    • Комментарии (0):

      Информация

      Информация

        Посетители, находящиеся в группе Гости, не могут оставлять комментарии в данной новости.

        ↓ Меню



        ↓ Опрос

        А Вы добавили сайт в закладки?
        Да
        Не


        Top 10 за месяц (Фильмы)