.
Авторизация | Регистрация
» » Бессмертные души / Soul Survivors (2001) DVDRip-AVC | P скачать торрент бесплатно




    Бессмертные души / Soul Survivors (2001) DVDRip-AVC | P скачать торрент бесплатно

    Опубликовал: Админ | Дата: 18-07-2016, 15:35 | Просмотров: 87



    Создали в: США
    Категория жанра: Ужасы, Триллер
    Время просмотра: 01: 25: 31
    Перевод текста: Профессиональный (многоголосый, закадровый)
    Главный режиссер: Стивен Карпентер
    Актеры: Мелисса Сейджмиллер, Уэс Бентли, Кейси Аффлек, Элиза Душку, Анджела Фезерстоун, Люк Уилсон, Аллен Хэмилтон, Кен Морено, Карл Паоли, Барбара Э. Робертсон

    Описание фильма

    После страшной автокатастрофы молодую девушку мучают кошмары. Ей кажется, что друг, с которым она была в машине, погиб. Но миры живых и мертвых иногда пересекаются.

    Качество фильма видео: DVDRip-AVC
    Информация о видео: AVC, 720x400 (16: 9), 23.976 fps, 2 051 Kbps (0.297 bit/pixel)
    Информация о звуке: AC-3, 48.0 KHz, 6 ch, 384 Kbps
    Mediainfo:

    Формат : Matroska
    Версия формата : Version 2
    Размер файла : 1, 46 Гбайт
    Продолжительность : 1 ч. 25 м.
    Общий поток : 2436 Кбит/сек
    Дата кодирования : UTC 2016-07-16 17: 42: 52
    Программа кодирования : mkvmerge v5.3.0 (;I could have danced;) built on Feb 9 2012 10: 38: 07
    Библиотека кодирования : libebml v1.2.3 + libmatroska v1.3.0
    Attachment : Yes
    Видео
    Идентификатор : 1
    Формат : AVC
    Формат/Информация : Advanced Video Codec
    Профиль формата : High@L4.1
    Параметр CABAC формата : Да
    Параметр ReFrames формата : 10 кадров
    Идентификатор кодека : V_MPEG4/ISO/AVC
    Продолжительность : 1 ч. 25 м.
    Битрейт : 2051 Кбит/сек
    Ширина : 720 пикселей
    Высота : 400 пикселей
    Соотношение сторон : 16: 9
    Режим частоты кадров : Постоянный
    Частота кадров : 23, 976 кадра/сек
    Цветовое пространство : YUV
    Субдискретизация насыщенности : 4: 2: 0
    Битовая глубина : 8 бит
    Тип развёртки : Прогрессивная
    Бит/(Пиксели*Кадры) : 0.297
    Размер потока : 1, 20 Гбайт (82%)
    Библиотека кодирования : x264 core 146 r2538 121396c
    Настройки программы : cabac=1/ref=10/deblock=1: -3: -3/analyse=0x3: 0x133/me=umh/subme=11/psy=1/psy_rd=1.00: 0.00/mixed_ref=1/me_range=32/chroma_me=1/trellis=2/8x8dct=1/cqm=0/deadzone=21, 11/fast_pskip=0/chroma_qp_offset=-2/threads=12/lookahead_threads=2/sliced_threads=0/nr=0/decimate=1/interlaced=0/bluray_compat=0/constrained_intra=0/bframes=8/b_pyramid=2/b_adapt=2/b_bias=0/direct=3/weightb=1/open_gop=0/weightp=2/keyint=240/keyint_min=23/scenecut=40/intra_refresh=0/rc=2pass/mbtree=0/bitrate=2051/ratetol=1.0/qcomp=0.60/qpmin=0/qpmax=69/qpstep=4/cplxblur=20.0/qblur=0.5/ip_ratio=1.40/pb_ratio=1.30/aq=2: 0.70
    Default : Да
    Forced : Нет
    Аудио
    Идентификатор : 2
    Формат : AC-3
    Формат/Информация : Audio Coding 3
    Расширение режима : CM (complete main)
    Параметр Endianness формата : Big
    Идентификатор кодека : A_AC3
    Продолжительность : 1 ч. 25 м.
    Вид битрейта : Постоянный
    Битрейт : 384 Кбит/сек
    Каналы : 6 каналов
    Расположение каналов : Front: L C R, Side: L R, LFE
    Частота : 48, 0 КГц
    Битовая глубина : 16 бит
    Метод сжатия : С потерями
    Размер потока : 235 Мбайт (16%)
    Default : Да
    Forced : Нет

    Скриншоты:


    Онлайн видео Бессмертные души


    Размер скачиваемого торрента: 1.46 GB (1563882534 Bytes)

    Бессмертные души/Soul Survivors (2001) DVDRip-AVC | P
    загрузка...
    Рейтинг →
     (голосов: 1, оценка 5/5, голосовать можно 1 раз )

    Другие торренты по теме:



      Комментарии (0):

      Информация

      Информация

        Посетители, находящиеся в группе Гости, не могут оставлять комментарии в данной новости.

        ↓ Меню



        ↓ Опрос

        А Вы добавили сайт в закладки?
        Да
        Не


        Top 10 за неделю (Фильмы)