.
Авторизация | Регистрация
Хочешь лучшие торренты? Добавь свой email!
Добавить
» » Убить трубача / Miles Ahead (2015) BDRip 1080p от ExKinoRay | iTunes торрент скачать бесплатно




    Убить трубача / Miles Ahead (2015) BDRip 1080p от ExKinoRay | iTunes торрент скачать бесплатно

    Опубликовал: Админ | Дата: 19-07-2016, 13:36 | Просмотров: 66



    Детально о кино
    Русское название: Убить трубача
    Русское название в мировом прокате: Miles Ahead
    Создали в: 2015
    Категория жанра: Драма, мелодрама, биография, музыка
    Главный режиссер: Дон Чидл

    Актеры
    Эмаяци Коринеальди, Эван МакГрегор, Дон Чидл, Майкл Стулбарг, Лейкит Стэнфилд, Остин Лион, Уилльям Уиллет, Нина Смиллоу, Морган Волк

    Сюжет фильма

    Нью-Йорк, ноябрь 1945 года. Начинающий талантливый музыкант Майлс Дейвис входит в квинтет выдающего джазмена Чарли Паркера. Со временем молодой трубач вырабатывает свой неповторимый стиль звучания. В мертвой музыке мелодия погибает, все дело в импровизации, – говорил Майлс Дейвис. Постепенно музыкант приобретает огромную популярность и славу не только в США, но и за пределами страны. Дейвис вносит огромный вклад в развитие акустического джаза. Музыкальные новшества знаменитого трубача становятся ориентиром для композиторов на ближайшие полсотни лет. Карьера джазмена была неровной. Дейвис переживал тяжелые периоды депрессии из-за пристрастия к наркотикам и алкоголю.

    Снималось в: США
    Киностудия: Bifrost Pictures, Crescendo Productions, Naked City Films, Sobini Films
    Время просмотра: 01: 40: 37
    Перевод текста: Профессиональный многоголосый (закадровый) | iTunes
    Файл
    Кодек для видео: MPEG-4
    Качество фильма: BDRip 1080p
    Информация о видео: 1920x800, 12.6 Mbit/s, 23.976 fps
    Информация о звуке:
    Информация о звуке #01: 48 kHz, AC3, 5.1, 384 Kbps | Профессиональный многоголосый (закадровый), iTunes |
    Информация о звуке #02: 48 kHz, DTS, 5.1, 1510 kbps | Оригинал |
    Субтитры: Английские
    MI
    General
    Unique ID : 190757161886920649349572274416849768595 (0x8F827E3674C416548FCBE9A33153D093)
    Complete name : F: VideoMiles.Ahead.2015.MVO.BDRip.1080p.ExKinoRay.mkv
    Format : Matroska
    Format version : Version 4/Version 2
    File size : 10.2 GiB
    Duration : 1h 40mn
    Overall bit rate : 14.5 Mbps
    Movie name : Miles.Ahead.2015.MVO.BDRip.1080p.ExKinoRay
    Encoded date : UTC 2016-07-18 04: 16: 30
    Writing application : mkvmerge v8.3.0 (;Over the Horizon;) 64bit
    Writing library : libebml v1.3.1 + libmatroska v1.4.2
    Video
    ID : 1
    Format : AVC
    Format/Info : Advanced Video Codec
    Format profile : High@L4.1
    Format settings, CABAC : Yes
    Format settings, ReFrames : 5 frames
    Codec ID : V_MPEG4/ISO/AVC
    Duration : 1h 40mn
    Bit rate : 12.6 Mbps
    Width : 1 920 pixels
    Height : 800 pixels
    Display aspect ratio : 2.40: 1
    Frame rate mode : Constant
    Frame rate : 23.976 (24000/1001) fps
    Color space : YUV
    Chroma subsampling : 4: 2: 0
    Bit depth : 8 bits
    Scan type : Progressive
    Bits/(Pixel*Frame) : 0.343
    Stream size : 8.89 GiB (87%)
    Writing library : x264 core 146 r2538 121396c
    Encoding settings : cabac=1/ref=5/deblock=1: -3: -3/analyse=0x3: 0x133/me=tesa/subme=11/psy=1/psy_rd=1.04: 0.00/mixed_ref=1/me_range=32/chroma_me=1/trellis=2/8x8dct=1/cqm=0/deadzone=21, 11/fast_pskip=0/chroma_qp_offset=-2/threads=60/lookahead_threads=6/sliced_threads=0/nr=0/decimate=0/interlaced=0/bluray_compat=0/constrained_intra=0/bframes=12/b_pyramid=2/b_adapt=2/b_bias=0/direct=3/weightb=1/open_gop=0/weightp=2/keyint=240/keyint_min=23/scenecut=40/intra_refresh=0/rc_lookahead=150/rc=crf/mbtree=0/crf=18.3/qcomp=0.60/qpmin=0/qpmax=69/qpstep=4/vbv_maxrate=62500/vbv_bufsize=78125/crf_max=0.0/nal_hrd=none/filler=0/ip_ratio=1.40/pb_ratio=1.30/aq=1: 0.80
    Language : English
    Default : Yes
    Forced : No
    Audio #1
    ID : 2
    Format : AC-3
    Format/Info : Audio Coding 3
    Mode extension : CM (complete main)
    Format settings, Endianness : Big
    Codec ID : A_AC3
    Duration : 1h 40mn
    Bit rate mode : Constant
    Bit rate : 384 Kbps
    Channel(s) : 6 channels
    Channel positions : Front: L C R, Side: L R, LFE
    Sampling rate : 48.0 KHz
    Frame rate : 31.250 fps (1536 spf)
    Compression mode : Lossy
    Stream size : 276 MiB (3%)
    Title : MVO iTunes
    Language : Russian
    Default : Yes
    Forced : No
    Audio #2
    ID : 3
    Format : DTS
    Format/Info : Digital Theater Systems
    Mode : 16
    Format settings, Endianness : Big
    Codec ID : A_DTS
    Duration : 1h 40mn
    Bit rate mode : Constant
    Bit rate : 1 509 Kbps
    Channel(s) : 6 channels
    Channel positions : Front: L C R, Side: L R, LFE
    Sampling rate : 48.0 KHz
    Frame rate : 93.750 fps (512 spf)
    Bit depth : 24 bits
    Compression mode : Lossy
    Stream size : 1.06 GiB (10%)
    Title : Original
    Language : English
    Default : No
    Forced : No
    Text #1
    ID : 4
    Format : UTF-8
    Codec ID : S_TEXT/UTF8
    Codec ID/Info : UTF-8 Plain Text
    Duration : 1h 31mn
    Bit rate : 54 bps
    Count of elements : 1202
    Stream size : 36.6 KiB (0%)
    Title : Full
    Language : English
    Default : No
    Forced : No
    Text #2
    ID : 5
    Format : UTF-8
    Codec ID : S_TEXT/UTF8
    Codec ID/Info : UTF-8 Plain Text
    Duration : 1h 39mn
    Bit rate : 62 bps
    Count of elements : 1472
    Stream size : 45.5 KiB (0%)
    Title : SDH
    Language : English
    Default : No
    Forced : No
    Menu
    00: 00: 00.000 : en: Chapter 1
    00: 06: 18.420 : en: Chapter 2
    00: 12: 45.515 : en: Chapter 3
    00: 19: 38.260 : en: Chapter 4
    00: 25: 01.500 : en: Chapter 5
    00: 31: 43.443 : en: Chapter 6
    00: 37: 35.587 : en: Chapter 7
    00: 43: 49.961 : en: Chapter 8
    00: 50: 51.006 : en: Chapter 9
    00: 56: 15.080 : en: Chapter 10
    01: 02: 57.315 : en: Chapter 11
    01: 09: 10.355 : en: Chapter 12
    01: 14: 39.600 : en: Chapter 13
    01: 19: 29.139 : en: Chapter 14
    01: 24: 21.890 : en: Chapter 15
    01: 31: 40.495 : en: Chapter 16
    Скриншоты

    Релиз подготовил: Автор релиза:

    Онлайн видео Убить трубача


    Размер скачиваемого торрента: 10.22 GB (10978012224 Bytes)

    Убить трубача/Miles Ahead (2015) BDRip 1080p от ExKinoRay | iTunes
    загрузка...
    Рейтинг →
     (голосов: 1, оценка 4/5, голосовать можно 1 раз )

    Другие торренты по теме:

  • Убить трубача / Miles Ahead (2015) HDRip от MegaPeer | iTunes
  • Убить трубача / Miles Ahead (2015) HDRip от MegaPeer | iTunes
  • Убить трубача / Miles Ahead (2015) HDRip от Scarabey | iTunes


    • Комментарии (0):

      Информация

      Информация

        Посетители, находящиеся в группе Гости, не могут оставлять комментарии в данной новости.

        ↓ Меню



        ↓ Опрос

        А Вы добавили сайт в закладки?
        Да
        Не


        Top 10 за месяц (Фильмы)