.
Авторизация | Регистрация
» » Суд в Берлине / Judgment in Berlin (1988) HDTV 1080i от MediaClub | P скачать торрент бесплатно




    Суд в Берлине / Judgment in Berlin (1988) HDTV 1080i от MediaClub | P скачать торрент бесплатно

    Опубликовал: Админ | Дата: 19-07-2016, 13:37 | Просмотров: 72



    Детально о кино
    Русское название: Суд в Берлине
    Русское название в мировом прокате: Judgment in Berlin
    Создали в: 1988
    Категория жанра: Драма
    Главный режиссер: Лео Пенн

    Актеры
    Мартин Шин, Шон Пенн, Харрис Юлин, Сэм Уонамейкер, Макс Гэйл, Юрген Хайнрих, Хайнц Хёниг, Карл Ламбли, Макс Фолькерт Мартенс, Кристин Роуз

    Сюжет фильма

    30 августа, 1978 года, Хельмут — восточный немец захватывает самолет и, угрожая пистолетом, принуждает пилотов приземлиться в Западном Берлине, который раньше никогда не выдавал перебежчиков на родину.На этот раз все изменилось, Хельмуту приходится бороться за свою свободу. Из Америки приезжает судья Герберт Стерн, чтобы провести показательный процесс. В ходе суда выясняется, что не будет даже присяжнных.Подсудимого собираются посадить на 15 лет. Судьба Хельмута зависит от показаний единственного свидетеля.

    Снималось в: Германия (ФРГ), США
    Киностудия: Bibo TV, January Enterprises, Sheen/Greenblatt Productions
    Время просмотра: 01: 30: 40
    Перевод текста: Профессиональный многоголосый
    Файл
    Кодек для видео: h.264
    Качество фильма: HDTV 1080i
    Информация о видео: MPEG-4 AVC, ~ 8298 Кбит/с, 1920x1080, 25.000 кадр/с
    Информация о звуке:
    Русский (AC3, 6 ch, 448 Кбит/с)/Профессиональный многоголосый
    Русский (MP2, 2 ch, 192 Кбит/с)/Профессиональный многоголосый
    Субтитры: Нет
    Семпл
    MI
    Общее
    Идентификатор : 1 (0x1)
    Полное имя : D: uTorrentSud.v.Berline.1988.HDTV.1080i.MediaClub.ts
    Формат : MPEG-TS
    Размер файла : 5, 96 Гбайт
    Продолжительность : 1 ч. 30 м.
    Режим общего битрейта : Переменный
    Общий поток : 9409 Кбит/сек
    Видео
    Идентификатор : 3021 (0xBCD)
    Идентификатор меню : 1234 (0x4D2)
    Формат : AVC
    Формат/Информация : Advanced Video Codec
    Профиль формата : Main@L4
    Параметр CABAC формата : Да
    Параметр ReFrames формата : 4 кадра
    Параметр GOP формата : M=1, N=32
    Идентификатор кодека : 27
    Продолжительность : 1 ч. 30 м.
    Битрейт : 8298 Кбит/сек
    Ширина : 1920 пикселей
    Высота : 1080 пикселей
    Соотношение сторон : 16: 9
    Частота кадров : 25, 000 кадров/сек
    Цветовое пространство : YUV
    Субдискретизация насыщенности : 4: 2: 0
    Битовая глубина : 8 бит
    Тип развёртки : Чересстрочная
    Метод сохранения типа развёртки : Раздельные поля
    Порядок развёртки : Верхнее поле первое
    Бит/(Пиксели*Кадры) : 0.160
    Размер потока : 5, 26 Гбайт (88%)
    Цветовой диапазон : Limited
    Основные цвета : BT.709
    Характеристики трансфера : BT.709
    Коэффициенты матрицы : BT.709
    Аудио #1
    Идентификатор : 3022 (0xBCE)
    Идентификатор меню : 1234 (0x4D2)
    Формат : AC-3
    Формат/Информация : Audio Coding 3
    Расширение режима : CM (complete main)
    Параметр Endianness формата : Big
    Идентификатор кодека : 6
    Продолжительность : 1 ч. 30 м.
    Вид битрейта : Постоянный
    Битрейт : 448 Кбит/сек
    Каналы : 6 каналов
    Расположение каналов : Front: L C R, Side: L R, LFE
    Частота : 48, 0 КГц
    Частота кадров : 31, 250 кадров/сек (1536 spf)
    Метод сжатия : С потерями
    Размер потока : 291 Мбайт (5%)
    Язык : Russian
    Аудио #2
    Идентификатор : 3023 (0xBCF)
    Идентификатор меню : 1234 (0x4D2)
    Формат : MPEG Audio
    Версия формата : Version 1
    Профиль формата : Layer 2
    Идентификатор кодека : 3
    Продолжительность : 1 ч. 30 м.
    Вид битрейта : Постоянный
    Битрейт : 192 Кбит/сек
    Каналы : 2 канала
    Частота : 48, 0 КГц
    Метод сжатия : С потерями
    Размер потока : 125 Мбайт (2%)
    Язык : Russian

    Скриншоты

    Релиз подготовил: | Silverok
    Залил: silverina64

    Онлайн видео Суд в Берлине


    Размер скачиваемого торрента: 5.96 GB (6398998300 Bytes)

    Суд в Берлине/Judgment in Berlin (1988) HDTV 1080i от MediaClub | P
    загрузка...
    Рейтинг →
     (голосов: 1, оценка 4/5, голосовать можно 1 раз )

    Другие торренты по теме:

  • Суд в Берлине / Judgment in Berlin (1988) HDTVRip-AVC от MediaClub | P скачать торрент бесплатно


    • Комментарии (0):

      Информация

      Информация

        Посетители, находящиеся в группе Гости, не могут оставлять комментарии в данной новости.

        ↓ Меню



        ↓ Опрос

        А Вы добавили сайт в закладки?
        Да
        Не


        Top 10 за неделю (Фильмы)