.
Авторизация | Регистрация
Хочешь лучшие торренты? Добавь свой email!
Добавить
» » Команда А / The A-Team (2010) BDRip 720p от HQ-ViDEO | D | Театральная версия торрент скачать бесплатно




    Команда А / The A-Team (2010) BDRip 720p от HQ-ViDEO | D | Театральная версия торрент скачать бесплатно

    Опубликовал: Админ | Дата: 20-07-2016, 05:00 | Просмотров: 46



    Команда А/The A-Team (2010) BDRip 720p
    Релиз от HQ-ViDEO

    Детально о кино
    Русское название: Команда А
    Русское название в мировом прокате: The A-Team
    Создали в: 2010
    Категория жанра: боевик, триллер, комедия, приключения
    Главный режиссер: Джо Карнахан /Joe Carnahan/

    Актеры
    Лиам Нисон /Liam Neeson/, Брэдли Купер /Bradley Cooper/, Джессика Бил /Jessica Biel/ , Куинтон Джексон /Quinton ;Rampage; Jackson/, Шарлто Копли /Sharlto Copley/, Патрик Уилсон /Patrick Wilson/, Джералд МакРэйни /Gerald McRaney/, Генри Черни /Henry Czerny/, Юл Васкез /Yul Vazquez/, Брайан Блум /Brian Bloom/...

    Сюжет фильма

    Группа ветеранов войны в Ираке, несправедливо обвиненных в преступлении, пытается найти истинных виновников и вернуть себе честное имя.

    Снималось в: США
    Время просмотра: 01: 58: 46
    Перевод текста: Русский дублированный (Лицензия) + Украинский профессиональный, многоголосый (Отдельно) + Оригинальная, английская дорожка (Отдельно)
    Файл
    Кодек для видео: MKV, H.264
    Качество фильма: BDRip 720p (Source: Blu-ray Disc)
    Информация о видео: 4713 kbps; 0.282 bit/pixel; 1280 x 544; 2.35: 1; 23.976 fps
    Информация о звуке #1: AC3 Dolby Digital; 448.00 kbps, 6 Ch - DUB
    Информация о звуке #2: AC3 Dolby Digital; 384.00 kbps, 6 Ch - UKR MVO (отдельно/скачать с Яндекс Диск)
    Информация о звуке #3: AC3 Dolby Digital; 448.00 kbps, 6 Ch - ENG (отдельно/скачать с Яндекс Диск)
    Субтитры: Русские, Английские.
    Субтитры: Русские (полные, форсированные), Украинские (полные, форсированные), Английские (SDH, форсированные).(Отдельно)
    Размер скачиваемого торрента: 4.37 GB
    SAMPLE/скачать с Яндекс Диск
    MediaInfo

    General
    Complete name : Komanda.A.2010.RUS.BDRip.720p.h264.AC3.-HQ-ViDEO.mkv
    Format : Matroska
    File size : 4.37 GiB
    Duration : 1h 58mn
    Overall bit rate : 5 266 Kbps
    Movie name : The A-Team (2010)
    Encoded date : UTC 2010-10-27 05: 25: 42
    Writing application : mkvmerge v3.3.0 (;Language;) built on Mar 24 2010 14: 59: 24
    Writing library : libebml v0.8.0 + libmatroska v0.9.0
    Video
    ID : 1
    Format : AVC
    Format/Info : Advanced Video Codec
    Format profile : High@L4.1
    Format settings, CABAC : Yes
    Format settings, ReFrames : 6 frames
    Muxing mode : Container profile=Unknown@4.1
    Codec ID : V_MPEG4/ISO/AVC
    Duration : 1h 58mn
    Bit rate : 4 713 Kbps
    Width : 1 280 pixels
    Height : 544 pixels
    Display aspect ratio : 2.35: 1
    Frame rate : 23.976 fps
    Resolution : 8 bits
    Colorimetry : 4: 2: 0
    Scan type : Progressive
    Bits/(Pixel*Frame) : 0.282
    Stream size : 3.91 GiB (89%)
    Title : Encoded by GYN
    Audio
    ID : 2
    Format : AC-3
    Format/Info : Audio Coding 3
    Codec ID : A_AC3
    Duration : 1h 58mn
    Bit rate mode : Constant
    Bit rate : 448 Kbps
    Channel(s) : 6 channels
    Channel positions : Front: L C R, Surround: L R, LFE
    Sampling rate : 48.0 KHz
    Stream size : 381 MiB (9%)
    Title : DUB
    Language : Russian
    Text #1
    ID : 3
    Format : UTF-8
    Codec ID : S_TEXT/UTF8
    Codec ID/Info : UTF-8 Plain Text
    Language : Russian
    Text #2
    ID : 4
    Format : UTF-8
    Codec ID : S_TEXT/UTF8
    Codec ID/Info : UTF-8 Plain Text
    Language : English





    Релиз подготовил: HQ-ViDEO
    Автор рипа: GYN

    Онлайн видео Команда А


    Размер скачиваемого торрента: 4.37 GB (4690464792 Bytes)

    Команда А/The A-Team (2010) BDRip 720p от HQ-ViDEO | D | Театральная версия
    загрузка...
    Рейтинг →
     (голосов: 1, оценка 3/5, голосовать можно 1 раз )

    Другие торренты по теме:

  • Команда А / The A-Team (2010) BDRip 1080p от NNNB | Extended Cut | D, P, A, L1
  • Команда А / The A-Team (2010) BDRip 720p от HQ-ViDEO | Extended Cut
  • Команда А / The A-Team (2010) BDRip 1080p | Расширенная версия
  • Колония / Двойная команда / Double Team (1997) BDRip by msltel | P, P2, A скачать через торрент бесплатно
  • Колония / Двойная команда / Double Team (1997) BDRip 720p by msltel | P, P2, A
  • Колония / Двойная команда / Double Team (1997) HDTVRip 1080p by msltel | P, P2, A
  • Команда А / The A-Team (2010) BDRip-AVC от HELLYWOOD | Extended Cut
  • Команда А / The A-Team (2010) BDRip-AVC | Расширенная версия


    • Комментарии (0):

      Информация

      Информация

        Посетители, находящиеся в группе Гости, не могут оставлять комментарии в данной новости.

        ↓ Меню



        ↓ Опрос

        А Вы добавили сайт в закладки?
        Да
        Не


        Top 10 за месяц (Фильмы)