.
Авторизация | Регистрация
» » Болото / Venom (2005) BDRip 720p | P, P2, A скачать торрент бесплатно




    Болото / Venom (2005) BDRip 720p | P, P2, A скачать торрент бесплатно

    Опубликовал: Админ | Дата: 20-07-2016, 15:35 | Просмотров: 86



    Детально о кино
    Русское название: Болото
    Русское название в мировом прокате: Venom
    Создали в: 2005
    Категория жанра: ужасы
    Главный режиссер: Джим Гиллеспи

    Актеры
    Агнес Брукнер, Джонатан Джексон, Лаура Рэмси, Ди Джей Котрона, Рик Крамер, Миган Гуд, Бижу Филлипс, Метод Мэн, Павел Жайда, Даветта Шервуд, Стэйси Трэвис, Маркус Лайл Браун, Джеймс Пикенс мл., Дебора Дьюк, Майкл Джеймс Дьюкс, Дэвид Мишель

    Сюжет фильма
    Когда Рей помогал пожилой негритянке в дорожном происшествии на мосту, его покусали змеи, которые были у нее в чемодане. Потеряв сознание, он упал с моста и утонул. Спасённая бабуля ужаснулась, сказав, что в вуду при помощи этих змей, она высасывала злую сторону из плохих людей. Но покусав мужчину, они тем самым переместили в него всю плохую энергию, что накопилась в них за многие годы. И теперь оживший Рей, одержимый всеми возможными демонами, будет приносить им кровавые человеческие жертвы.

    Снималось в: США
    Время просмотра: 01: 26: 52
    Перевод текста 1: Профессиональный (многоголосый, закадровый) - СТС
    Перевод текста 2: Профессиональный (двухголосый, закадровый)
    Перевод текста 3: Авторский (одноголосый закадровый) - Евгений Гранкин
    Оригинальная аудиодорожка: English
    Субтитры подготовлены: English (full)
    Файл
    Кодек для видео: MPEG-4 AVC
    Качество фильма: BDRip 720p
    Информация о видео: 1278x720 (16: 9), 23.976 fps, 6592 kb/s, 0.292 bit/pixel
    Информация о звуке 1: 48.0 kHz, AC3 Dolby Digital, 2/0 (L, R) ch, ~192 kbps avg | Профессиональный (многоголосый, закадровый) - СТС
    Информация о звуке 2: 48.0 kHz, AC3 Dolby Digital, 3/2 (L, C, R, l, r) + LFE ch, ~448.00 kbps avg | Профессиональный (двухголосый, закадровый)
    Информация о звуке 3: 48.0 kHz, AC3 Dolby Digital, 2/0 (L, R) ch, ~192 kbps avg | Авторский (одноголосый закадровый) - Евгений Гранкин
    Информация о звуке 4: 48.0 kHz, AC3 Dolby Digital, 3/2 (L, C, R, l, r) + LFE ch, ~640.00 kbps avg | English
    Скриншоты

    MediaInfo
    General
    Unique ID : 183776165839482260170998353636556939831 (0x8A420088ACC5BC44A422CF5BC81A2237)
    Format : Matroska
    Format version : Version 2
    File size : 4.90 GiB
    Duration : 1h 26mn
    Overall bit rate : 8 068 Kbps
    Movie name : Venom (2005) - BDRip 720p © Fredd Kruger
    Encoded date : UTC 2016-07-17 16: 55: 39
    Writing application : mkvmerge v9.2.0 (;Photograph;) 64bit
    Writing library : libebml v1.3.3 + libmatroska v1.4.4
    Attachements : cover.png
    Video
    ID : 1
    Format : AVC
    Format/Info : Advanced Video Codec
    Format profile : High@L4.1
    Format settings, CABAC : Yes
    Format settings, ReFrames : 9 frames
    Codec ID : V_MPEG4/ISO/AVC
    Duration : 1h 26mn
    Bit rate : 6 436 Kbps
    Width : 1 278 pixels
    Height : 720 pixels
    Display aspect ratio : 16: 9
    Frame rate mode : Constant
    Frame rate : 23.976 fps
    Color space : YUV
    Chroma subsampling : 4: 2: 0
    Bit depth : 8 bits
    Scan type : Progressive
    Bits/(Pixel*Frame) : 0.292
    Stream size : 3.91 GiB (80%)
    Title : Venom 2005 720p BluRay DD5.1 x264-JewelBox
    Writing library : x264 core 148 r2705kMod 3f5ed56
    Encoding settings : cabac=1/ref=9/deblock=1: -3: -3/analyse=0x3: 0x133/me=umh/subme=11/psy=1/fade_compensate=0.00/psy_rd=1.08: 0.00/mixed_ref=1/me_range=48/chroma_me=1/trellis=2/8x8dct=1/cqm=0/deadzone=21, 11/fast_pskip=0/chroma_qp_offset=-2/threads=12/lookahead_threads=3/sliced_threads=0/nr=0/decimate=1/interlaced=0/bluray_compat=0/constrained_intra=0/fgo=0/bframes=16/b_pyramid=2/b_adapt=2/b_bias=0/direct=3/weightb=1/open_gop=0/weightp=2/keyint=250/keyint_min=23/scenecut=40/intra_refresh=0/rc_lookahead=60/rc=crf/mbtree=0/crf=16.6000/qcomp=0.65/qpmin=0/qpmax=69/qpstep=4/vbv_maxrate=62500/vbv_bufsize=78125/crf_max=0.0/nal_hrd=none/filler=0/ip_ratio=1.40/pb_ratio=1.30/aq=3: 0.90
    Language : English
    Default : Yes
    Forced : Yes
    Color range : Limited
    Color primaries : BT.709
    Transfer characteristics : BT.709
    Matrix coefficients : BT.709
    Audio #1
    ID : 2
    Format : AC-3
    Format/Info : Audio Coding 3
    Mode extension : CM (complete main)
    Format settings, Endianness : Big
    Codec ID : A_AC3
    Duration : 1h 26mn
    Bit rate mode : Constant
    Bit rate : 192 Kbps
    Channel(s) : 2 channels
    Channel positions : Front: L R
    Sampling rate : 48.0 KHz
    Compression mode : Lossy
    Stream size : 119 MiB (2%)
    Title : Профессиональный (многоголосый, закадровый) - СТС
    Language : Russian
    Default : Yes
    Forced : No
    Audio #2
    ID : 3
    Format : AC-3
    Format/Info : Audio Coding 3
    Mode extension : CM (complete main)
    Format settings, Endianness : Big
    Codec ID : A_AC3
    Duration : 1h 26mn
    Bit rate mode : Constant
    Bit rate : 448 Kbps
    Channel(s) : 6 channels
    Channel positions : Front: L C R, Side: L R, LFE
    Sampling rate : 48.0 KHz
    Compression mode : Lossy
    Stream size : 278 MiB (6%)
    Title : Профессиональный (двухголосый, закадровый)
    Language : Russian
    Default : No
    Forced : No
    Audio #3
    ID : 4
    Format : AC-3
    Format/Info : Audio Coding 3
    Mode extension : CM (complete main)
    Format settings, Endianness : Big
    Codec ID : A_AC3
    Duration : 1h 26mn
    Bit rate mode : Constant
    Bit rate : 192 Kbps
    Channel(s) : 2 channels
    Channel positions : Front: L R
    Sampling rate : 48.0 KHz
    Compression mode : Lossy
    Stream size : 119 MiB (2%)
    Title : Авторский (одноголосый закадровый) - Евгений Гранкин
    Language : Russian
    Default : No
    Forced : No
    Audio #4
    ID : 5
    Format : AC-3
    Format/Info : Audio Coding 3
    Mode extension : CM (complete main)
    Format settings, Endianness : Big
    Codec ID : A_AC3
    Duration : 1h 26mn
    Bit rate mode : Constant
    Bit rate : 640 Kbps
    Channel(s) : 6 channels
    Channel positions : Front: L C R, Side: L R, LFE
    Sampling rate : 48.0 KHz
    Compression mode : Lossy
    Stream size : 398 MiB (8%)
    Language : English
    Default : No
    Forced : No
    Text
    ID : 6
    Format : UTF-8
    Codec ID : S_TEXT/UTF8
    Codec ID/Info : UTF-8 Plain Text
    Title : full
    Language : English
    Default : No
    Forced : No
    Menu
    00: 00: 00.000 : en: 00: 00: 00.000
    00: 06: 52.370 : en: 00: 06: 52.370
    00: 13: 43.197 : en: 00: 13: 43.197
    00: 20: 09.083 : en: 00: 20: 09.083
    00: 23: 29.366 : en: 00: 23: 29.366
    00: 29: 33.730 : en: 00: 29: 33.730
    00: 35: 03.101 : en: 00: 35: 03.101
    00: 40: 10.366 : en: 00: 40: 10.366
    00: 47: 19.295 : en: 00: 47: 19.295
    00: 54: 00.487 : en: 00: 54: 00.487
    01: 00: 47.394 : en: 01: 00: 47.394
    01: 05: 07.445 : en: 01: 05: 07.445
    01: 07: 41.766 : en: 01: 07: 41.766
    01: 12: 51.784 : en: 01: 12: 51.784
    01: 15: 54.216 : en: 01: 15: 54.216


    Онлайн видео Болото


    Размер скачиваемого торрента: 4.90 GB (5256876842 Bytes)

    Болото/Venom (2005) BDRip 720p | P, P2, A
    загрузка...
    Рейтинг →
     (голосов: 1, оценка 5/5, голосовать можно 1 раз )

    Другие торренты по теме:

  • Болото / Venom (2005) BDRip-AVC | P торрент скачать бесплатно


    • Комментарии (0):

      Информация

      Информация

        Посетители, находящиеся в группе Гости, не могут оставлять комментарии в данной новости.

        ↓ Меню



        ↓ Опрос

        А Вы добавили сайт в закладки?
        Да
        Не


        Top 10 за неделю (Фильмы)