.
Авторизация | Регистрация
» » Хардкор / Hardcore Henry (2015) BDRip от ExKinoRay | А скачать торрент бесплатно




    Хардкор / Hardcore Henry (2015) BDRip от ExKinoRay | А скачать торрент бесплатно

    Опубликовал: Админ | Дата: 21-07-2016, 05:00 | Просмотров: 67



    Детально о кино
    Русское название: Хардкор
    Русское название в мировом прокате: Hardcore Henry
    Создали в: 2015
    Категория жанра: боевик, фантастика
    Главный режиссёр фильма: Илья Найшуллер
    Актёры: Шарлто Копли, Данила Козловский, Хейли Беннетт, Андрей Дементьев, Сергей Шнуров, Кирилл Серебренников, Александр Паль, Светлана Устинова, Даша Чаруша, Равшана Куркова

    Сюжет фильма
    В воздушной лаборатории над Москвой проводятся военно-научные эксперименты по созданию людей-киборгов. Научный сотрудник Эстель собирает киборга Генри, который пробуждается в своей новой форме и единственное, что помнит из прошлой жизни — только их с Эстель любовь друг к другу. Не успев собрать мозаику воспоминаний, Генри теряет девушку по воле слепого злодея, альбиноса Акана, который похищает Эстель с помощью телекинеза. Герой бежит по ее следам, встречая на пути таинственного незнакомца Джимми, который спасает Генри жизнь и передает ему ценную информацию, способную пролить свет на прошлое киборга и место, где находится Эстель. Но дорога к ней будет полна опасностей…

    Снималось в: Россия, США, Базелевс Продакшн, Robusto
    Время просмотра: 01: 36: 50
    Озвучка: А.Киреева по Гоблинскому переводу
    Файл
    Кодек для видео: XviD
    Качество фильма: BDRip
    Информация о видео: XviD, 1707 Кбит/с, 720x384
    Информация о звуке: АС3, 6 ch, 448 Кбит/с
    Инфо файл
    Общее
    Полное имя : D: ВидеоHardcore.Henry.2015. ВDRip Киреев by Vovan366(ExKinoRay).avi
    Формат : AVI
    Формат/Информация : Audio Video Interleave
    Размер файла : 1, 46 Гбайт
    Продолжительность : 1 ч. 36 м.
    Общий поток : 2164 Кбит/сек
    Программа кодирования : VirtualDubMod 1.5.10.3 | www.virtualdub-fr.org || (build 2550/release)
    Библиотека кодирования : VirtualDubMod build 2550/release
    Видео
    Идентификатор : 0
    Формат : MPEG-4 Visual
    Профиль формата : Advanced Simple@L5
    Параметр BVOP формата : 2
    Параметр QPel формата : Нет
    Параметр GMC формата : Без точки перехода
    Параметр матрицы формата : Выборочная
    Режим смешивания : Сжатый битовый поток
    Идентификатор кодека : XVID
    Идентификатор кодека/Подсказка : XviD
    Продолжительность : 1 ч. 36 м.
    Битрейт : 1707 Кбит/сек
    Ширина : 720 пикселей
    Высота : 384 пикселя
    Соотношение сторон : 1, 85: 1
    Частота кадров : 23, 976 кадра/сек
    Цветовое пространство : YUV
    Субдискретизация насыщенности : 4: 2: 0
    Битовая глубина : 8 бит
    Тип развёртки : Прогрессивная
    Метод сжатия : С потерями
    Бит/(Пиксели*Кадры) : 0.258
    Размер потока : 1, 15 Гбайт (79%)
    Библиотека кодирования : XviD 73
    Аудио
    Идентификатор : 1
    Формат : AC-3
    Формат/Информация : Audio Coding 3
    Расширение режима : CM (complete main)
    Параметр Endianness формата : Big
    Идентификатор кодека : 2000
    Продолжительность : 1 ч. 36 м.
    Вид битрейта : Постоянный
    Битрейт : 448 Кбит/сек
    Каналы : 6 каналов
    Расположение каналов : Front: L C R, Side: L R, LFE
    Частота : 48, 0 КГц
    Битовая глубина : 16 бит
    Метод сжатия : С потерями
    Размер потока : 310 Мбайт (21%)
    Выравнивание : Разделение по промежуткам
    Продолжительность промежутка : 42 мс. (1, 00 видеокадр)
    Время предзагрузки промежутка : 500 мс.
    Скриншоты



    Релиз подготовил:
    Rip by: Vovan366
    Залил: Wazzzup RK

    Онлайн видео Хардкор


    Размер скачиваемого торрента: 1.46 GB (1572118528 Bytes)

    Хардкор/Hardcore Henry (2015) BDRip от ExKinoRay | А
    загрузка...
    Рейтинг →
     (голосов: 1, оценка 4/5, голосовать можно 1 раз )

    Другие торренты по теме:



      Комментарии (0):

      Информация

      Информация

        Посетители, находящиеся в группе Гости, не могут оставлять комментарии в данной новости.

        ↓ Меню



        ↓ Опрос

        А Вы добавили сайт в закладки?
        Да
        Не


        Top 10 за неделю (Фильмы)