.
Авторизация | Регистрация
Хочешь лучшие торренты? Добавь свой email!
Добавить
» » Киберзолото / TRIO: Cybergullet (2015) HDTVRip 1080p | P торрент скачать бесплатно




    Киберзолото / TRIO: Cybergullet (2015) HDTVRip 1080p | P торрент скачать бесплатно

    Опубликовал: Админ | Дата: 21-07-2016, 14:31 | Просмотров: 59



    Детально о кино
    Русское название: Киберзолото
    Русское название в мировом прокате: TRIO: Cybergullet/TRIO: Cybergold
    Создали в: 2015
    Категория жанра: приключения, семейный
    Главный режиссер: Маргрет Бергхайм

    Актеры
    Наоми Хассельберг Торсруд, Оскар Линдквист, Бьёрнар Лисфосс Хагесвеен, Рейдар Сёренсен, Матс Элдоен, Камилла Аугуста Халлан, Франциска Тёрнквист, Рагнхильд Ваннебо

    Сюжет фильма

    Опасный преступник решается на организованную хакерскую атаку, чтобы завладеть золотым запасом Норвегии. Но чтобы не засветиться, он решает подставить отца Ларса. Юным героям предстоит исправить это недоразумение и, по возможности, помочь остановить злодея.
    Продолжение сериалаЗолото Одина. По российскому ТВ они показывались под общим названием Золото Одина.

    Создали в: Норвегия/NordicStories
    Время просмотра: 10 x ~00: 24: 00
    Перевод текста: профессиональный (многолосый закадровый)
    Файл
    Качество фильма: HDTVRip 1080p
    Тип видео: MKV
    Информация о видео: MPEG-4 AVC, 1920x1080 (16: 9), 25.000 fps, 5000 kbps, 0.096 bit/pixel
    Информация о звуке: русский, AC3 2.0, 48 kHz, 192 kbps
    MediaInfo
    Формат : Matroska
    Версия формата : Version 4/Version 2
    Размер файла : 876 Мбайт
    Продолжительность : 23 м.
    Режим общего битрейта : Постоянный
    Общий поток : 5112 Кбит/сек
    Дата кодирования : UTC 2016-06-24 11: 44: 34
    Программа кодирования : mkvmerge v7.9.0 (;Birds;) 64bit
    Библиотека кодирования : libebml v1.3.1 + libmatroska v1.4.2
    Видео
    Идентификатор : 1
    Формат : AVC
    Формат/Информация : Advanced Video Codec
    Профиль формата : High@L4.1
    Параметр CABAC формата : Да
    Параметр ReFrames формата : 3 кадра
    Параметр GOP формата : M=3, N=25
    Идентификатор кодека : V_MPEG4/ISO/AVC
    Продолжительность : 23 м.
    Вид битрейта : Постоянный
    Битрейт : 5000 Кбит/сек
    Ширина : 1920 пикселей
    Высота : 1080 пикселей
    Соотношение сторон : 16: 9
    Режим частоты кадров : Постоянный
    Частота кадров : 25, 000 кадров/сек
    Стандарт вещания : PAL
    Цветовое пространство : YUV
    Субдискретизация насыщенности : 4: 2: 0
    Битовая глубина : 8 бит
    Тип развёртки : Прогрессивная
    Бит/(Пиксели*Кадры) : 0.096
    Размер потока : 825 Мбайт (94%)
    Язык : English
    Default : Да
    Forced : Нет
    Цветовой диапазон : Limited
    Основные цвета : BT.709
    Характеристики трансфера : BT.709
    Коэффициенты матрицы : BT.709
    Аудио
    Идентификатор : 2
    Формат : AC-3
    Формат/Информация : Audio Coding 3
    Расширение режима : CM (complete main)
    Параметр Endianness формата : Big
    Идентификатор кодека : A_AC3
    Продолжительность : 23 м.
    Вид битрейта : Постоянный
    Битрейт : 192 Кбит/сек
    Каналы : 2 канала
    Расположение каналов : Front: L R
    Частота : 48, 0 КГц
    Метод сжатия : С потерями
    Размер потока : 32, 9 Мбайт (4%)
    Язык : Russian
    Default : Да
    Forced : Нет
    Скриншоты

    Залил: makkaronni

    Онлайн видео Киберзолото


    Размер скачиваемого торрента: 8.70 GB (9340757551 Bytes)

    Киберзолото/TRIO: Cybergullet (2015) HDTVRip 1080p | P
    загрузка...
    Рейтинг →
     (голосов: 1, оценка 3/5, голосовать можно 1 раз )

    Другие торренты по теме:



      Комментарии (0):

      Информация

      Информация

        Посетители, находящиеся в группе Гости, не могут оставлять комментарии в данной новости.

        ↓ Меню



        ↓ Опрос

        А Вы добавили сайт в закладки?
        Да
        Не


        Top 10 за месяц (Фильмы)