.
Авторизация | Регистрация
Хочешь лучшие торренты? Добавь свой email!
Добавить
» » Странные каникулы / Strange Holiday (1970) DVDRip | A торрент скачать бесплатно




    Странные каникулы / Strange Holiday (1970) DVDRip | A торрент скачать бесплатно

    Опубликовал: Админ | Дата: 22-07-2016, 15:53 | Просмотров: 63



    Детально о кино
    Русское название: Странные каникулы/Мальчишки с потерянного острова
    Русское название в мировом прокате: Strange Holiday/Boys of lost island
    Создали в: 1970
    Категория жанра: приключения, семейный
    Главный режиссер: Менде Браун

    Актеры
    Жайме Гамильтон, Марк Хили, Жайме Массанж, Ван Александер, Росс Уильямс, Саймон Эспри, Питер Александр, Майкл Бэрри, Марк Ли, Ларри Крэйн

    Сюжет фильма

    Группа мальчишек оказалась на пустынном острове. После того, как шторм разбил их лодку, они поняли, что единственный способ выжить - это держаться вместе. Но когда другой шторм выбросил на берег другую лодку, они столкнулись со страшным преступлением. Им предстоит быстро думать и принимать решения, чтобы вернуться домой живыми...
    По мотивам романа Жюля Верна Два года каникул

    Создали в: Австралия/Mass-Brown Productions
    Время просмотра: 01: 08: 24
    Перевод текста: авторский одноголосый Антон Алексеев
    Файл
    Качество фильма: DVDRip
    Тип видео: AVI
    Информация о видео: XviD, 640x480 (4: 3), 23.976 fps, 2434 kbps, 0.33 bit/pixel
    Информация о звуке: русский, AC3 2.0, 48 kHz, 192 kbps
    MediaInfo
    Формат : AVI
    Формат/Информация : Audio Video Interleave
    Размер файла : 1, 26 Гбайт
    Продолжительность : 1 ч. 8 м.
    Общий поток : 2636 Кбит/сек
    Программа кодирования : VirtualDubMod 1.5.10.2 (build 2540/release)
    Библиотека кодирования : VirtualDubMod build 2540/release
    Видео
    Идентификатор : 0
    Формат : MPEG-4 Visual
    Профиль формата : Advanced Simple@L5
    Параметр BVOP формата : 1
    Параметр QPel формата : Нет
    Параметр GMC формата : Без точки перехода
    Параметр матрицы формата : Выборочная
    Идентификатор кодека : XVID
    Идентификатор кодека/Подсказка : XviD
    Продолжительность : 1 ч. 8 м.
    Битрейт : 2434 Кбит/сек
    Ширина : 640 пикселей
    Высота : 480 пикселей
    Соотношение сторон : 4: 3
    Частота кадров : 23, 976 кадра/сек
    Цветовое пространство : YUV
    Субдискретизация насыщенности : 4: 2: 0
    Битовая глубина : 8 бит
    Тип развёртки : Прогрессивная
    Метод сжатия : С потерями
    Бит/(Пиксели*Кадры) : 0.330
    Размер потока : 1, 16 Гбайт (92%)
    Библиотека кодирования : XviD 1.2.1 (UTC 2008-12-04)
    Аудио
    Идентификатор : 1
    Формат : AC-3
    Формат/Информация : Audio Coding 3
    Расширение режима : CM (complete main)
    Параметр Endianness формата : Big
    Идентификатор кодека : 2000
    Продолжительность : 1 ч. 8 м.
    Вид битрейта : Постоянный
    Битрейт : 192 Кбит/сек
    Каналы : 2 канала
    Расположение каналов : Front: L R
    Частота : 48, 0 КГц
    Метод сжатия : С потерями
    Размер потока : 93, 9 Мбайт (7%)
    Выравнивание : Разделение по промежуткам
    Продолжительность промежутка : 42 мс. (1, 00 видеокадр)
    Время предзагрузки промежутка : 500 мс.
    Язык : Russian
    Скриншоты

    Залил: makkaronni

    Онлайн видео Странные каникулы


    Размер скачиваемого торрента: 1.26 GB (1352181760 Bytes)

    Странные каникулы/Strange Holiday (1970) DVDRip | A
    загрузка...
    Рейтинг →
     (голосов: 1, оценка 4/5, голосовать можно 1 раз )

    Другие торренты по теме:

  • Очень странные дела / Крайне странные события / Stranger Things (2016) WEBRip 720p | Jaskier
  • Странные вещи / Очень странные дела / Stranger Things (2016) WEBRip 720p | IdeaFilm
  • Очень странные дела / Крайне странные события / Stranger Things (2016) WEBRip 2160р | Jaskier, NewStudio
  • Странные супруги / Strange Bedfellows (1965) DVDRip-AVC
  • Тайные знаки. Странные явления. Параллельные миры (2011) SATRip от Generalfilm
  • Тайные знаки. Странные явления. Магия чисел (2011) SATRip от Generalfilm
  • Тайные знаки. Странные явления. Люди – металлы (2011) SATRip от Generalfilm
  • Тайные знаки. Странные явления. Второе рождение (2011) SATRip от Generalfilm


    • Комментарии (0):

      Информация

      Информация

        Посетители, находящиеся в группе Гости, не могут оставлять комментарии в данной новости.

        ↓ Меню



        ↓ Опрос

        А Вы добавили сайт в закладки?
        Да
        Не


        Top 10 за месяц (Фильмы)