.
Авторизация | Регистрация
» » Призраки покидают вершины (1955) VHSRip- от New-Team скачать торрент бесплатно




    Призраки покидают вершины (1955) VHSRip- от New-Team скачать торрент бесплатно

    Опубликовал: Админ | Дата: 23-07-2016, 14:24 | Просмотров: 50



    Снималось в: СССР
    Создали в: Ереванская киностудия
    Категория жанра: приключения
    Создали в: 1955
    Время просмотра: 01: 31: 51
    Перевод текста: Не требуется
    Субтитры подготовлены: нет
    Оригинальная аудиодорожка: русский
    Главный режиссер: Эразм Карамян, Степан Кеворков

    Актеры

    Сос Сосян, Виолетта Ютуджян, Артём Карапетян, Грачья Нерсесян, Ваграм Папазян, Давид Малян, Леонид Кмит, Всеволод Тягушев, Андрей Файт, Г. Яковлев, Ольга Гулазян...
    Полный список актёров
    Описание:
    Для восхождения на гору Камир-Сар, на неприступной вершине которой по заключению молодого ученого Арташеса Маляна находится редкое месторождение ртути и серебра, несмотря на противодействие маститого профессора Даниэль-бека, организуется экспедиция во главе с Маляном. Информация о смелом походе советских ученых доходит до Альвареца да Кортеца, хозяина одного из крупнейших европейских химических концернов. В молодости он побывал на этой вершине и, чтобы скрыть обнаруженные металлы, сбросил русского ученого Шелагина в пропасть, заставив молчать Даниэль-бека. Иностранная разведка получает задание сорвать экспедицию…



    Источник: VHS
    Качество фильма видео: VHSRip
    Тип видео видео: AVI
    Информация о видео: 704x528 (4: 3), 25 fps, XviD ~ 1497 kbps avg, 0.161 bit/pixel
    Информация о звуке: 48 kHz, Dolby Digital AC3 2.0, 192 kbps
    Раздача от:
    MediaInfo

    Общее
    Полное имя : Prizraki.pokidayt.vercshiny.1955.VHSRip_New-team_by_AVP_Studio.avi
    Формат : AVI
    Формат/Информация : Audio Video Interleave
    Размер файла : 1, 09 Гбайт
    Продолжительность : 1 ч. 31 м.
    Общий поток : 1698 Кбит/сек
    Программа кодирования : VirtualDubMod 1.5.10.3 | www.virtualdub-fr.org || (build 2550/release)
    Библиотека кодирования : VirtualDubMod build 2550/release
    Видео
    Идентификатор : 0
    Формат : MPEG-4 Visual
    Профиль формата : Advanced Simple@L5
    Параметр BVOP формата : 1
    Параметр QPel формата : Нет
    Параметр GMC формата : Без точки перехода
    Параметр матрицы формата : Выборочная
    Идентификатор кодека : XVID
    Идентификатор кодека/Подсказка : XviD
    Продолжительность : 1 ч. 31 м.
    Битрейт : 1497 Кбит/сек
    Ширина : 704 пикселя
    Высота : 528 пикселей
    Соотношение сторон : 4: 3
    Частота кадров : 25, 000 кадров/сек
    Цветовое пространство : YUV
    Субдискретизация насыщенности : 4: 2: 0
    Битовая глубина : 8 бит
    Тип развёртки : Прогрессивная
    Метод сжатия : С потерями
    Бит/(Пиксели*Кадры) : 0.161
    Размер потока : 983 Мбайт (88%)
    Библиотека кодирования : XviD 1.2.1 (UTC 2008-12-04)
    Аудио
    Идентификатор : 1
    Формат : AC-3
    Формат/Информация : Audio Coding 3
    Расширение режима : CM (complete main)
    Параметр Endianness формата : Big
    Идентификатор кодека : 2000
    Продолжительность : 1 ч. 31 м.
    Вид битрейта : Постоянный
    Битрейт : 192 Кбит/сек
    Каналы : 2 канала
    Расположение каналов : Front: L R
    Частота : 48, 0 КГц
    Частота кадров : 31, 250 кадров/сек (1536 spf)
    Метод сжатия : С потерями
    Размер потока : 126 Мбайт (11%)
    Выравнивание : Разделение по промежуткам
    Продолжительность промежутка : 40 мс. (1, 00 видеокадр)
    Время предзагрузки промежутка : 500 мс

    Скриншоты



    Залил: AVPStudio

    Онлайн видео Призраки покидают вершины (1955) VHSRip


    Размер скачиваемого торрента: 1.09 GB (1170104320 Bytes)

    Призраки покидают вершины (1955) VHSRip- от New-Team
    загрузка...
    Рейтинг →
     (голосов: 1, оценка 5/5, голосовать можно 1 раз )

    Другие торренты по теме:

  • Призраки покидают вершины (1955) VHSRip- от New-Team скачать торрент бесплатно


    • Комментарии (0):

      Информация

      Информация

        Посетители, находящиеся в группе Гости, не могут оставлять комментарии в данной новости.

        ↓ Меню



        ↓ Опрос

        А Вы добавили сайт в закладки?
        Да
        Не


        Top 10 за неделю (Фильмы)