.
Авторизация | Регистрация
» » Тролль / Troll (1986) HDRip-AVC | P, L1 скачать торрент бесплатно




    Тролль / Troll (1986) HDRip-AVC | P, L1 скачать торрент бесплатно

    Опубликовал: Админ | Дата: 23-07-2016, 14:24 | Просмотров: 74



    Создали в: США, Италия/Empire Pictures, Altar Productions
    Категория жанра: Фэнтези, Ужасы
    Время просмотра: 01: 22: 37
    Перевод текста: Профессиональный многоголосый, Любительский одноголосый
    Субтитры: Английский
    Главный режиссер: Джон Карл Бюхлер
    Актеры: Ноа Хэтауэй, Майкл Мориарти, Шелли Хэк, Дженни Бек, Сонни Боно, Фил Фондакаро, Брэд Холл, Энн Локхарт, Джулия Луис-Дрейфус, Гари Сэнди

    Описание фильма

    Проклятый король обращенный в Тролля, стремится вернуть себе человеческий облик. С этой целью он вселяется в тело маленькой девочки Венди, чья семья только что заселилась в один из многоквартирных домов Сан-Франциско. Помешать ему в этом может только старший брат Венди — Гарри и его новая знакомая — соседка, очень кстати оказавшаяся колдуньей.
    Качество фильма видео: HDRip-AVC
    Информация о видео: AVC, 1024x556 (16: 9), 23.976 fps, 2 132 Kbps (0.156 bit/pixel)
    Информация о звуке #1: AC-3, 48.0 KHz, 2 ch, 192 Kbps, CBR (Russian) - многоголосый (TV Домашний)
    Информация о звуке #2: AC-3, 48.0 KHz, 1 ch, 96.0 Kbps, CBR (Russian) - многоголосый (ТВ3)
    Информация о звуке #3: AC-3, 48.0 KHz, 1 ch, 96.0 Kbps, CBR (Russian) - любительский одноголосый
    Mediainfo:

    Формат : Matroska
    Версия формата : Version 2
    Размер файла : 1, 45 Гбайт
    Продолжительность : 1 ч. 22 м.
    Общий поток : 2516 Кбит/сек
    Дата кодирования : UTC 2016-07-21 11: 02: 52
    Программа кодирования : mkvmerge v5.3.0 (;I could have danced;) built on Feb 9 2012 10: 38: 07
    Библиотека кодирования : libebml v1.2.3 + libmatroska v1.3.0
    Attachment : Yes
    Видео
    Идентификатор : 1
    Формат : AVC
    Формат/Информация : Advanced Video Codec
    Профиль формата : High@L4.1
    Параметр CABAC формата : Да
    Параметр ReFrames формата : 10 кадров
    Идентификатор кодека : V_MPEG4/ISO/AVC
    Продолжительность : 1 ч. 22 м.
    Битрейт : 2132 Кбит/сек
    Ширина : 1024 пикселя
    Высота : 556 пикселей
    Соотношение сторон : 1, 85: 1
    Режим частоты кадров : Постоянный
    Частота кадров : 23, 976 кадра/сек
    Цветовое пространство : YUV
    Субдискретизация насыщенности : 4: 2: 0
    Битовая глубина : 8 бит
    Тип развёртки : Прогрессивная
    Бит/(Пиксели*Кадры) : 0.156
    Размер потока : 1, 20 Гбайт (83%)
    Библиотека кодирования : x264 core 146 r2538 121396c
    Настройки программы : cabac=1/ref=10/deblock=1: -3: -3/analyse=0x3: 0x133/me=umh/subme=10/psy=1/psy_rd=1.00: 0.00/mixed_ref=1/me_range=32/chroma_me=1/trellis=2/8x8dct=1/cqm=0/deadzone=21, 11/fast_pskip=0/chroma_qp_offset=-2/threads=12/lookahead_threads=2/sliced_threads=0/nr=0/decimate=1/interlaced=0/bluray_compat=0/constrained_intra=0/bframes=8/b_pyramid=2/b_adapt=2/b_bias=0/direct=3/weightb=1/open_gop=0/weightp=2/keyint=240/keyint_min=23/scenecut=40/intra_refresh=0/rc=2pass/mbtree=0/bitrate=2132/ratetol=1.0/qcomp=0.60/qpmin=0/qpmax=69/qpstep=4/cplxblur=20.0/qblur=0.5/ip_ratio=1.40/pb_ratio=1.30/aq=2: 0.70
    Default : Да
    Forced : Нет
    Аудио #1
    Идентификатор : 2
    Формат : AC-3
    Формат/Информация : Audio Coding 3
    Расширение режима : CM (complete main)
    Параметр Endianness формата : Big
    Идентификатор кодека : A_AC3
    Продолжительность : 1 ч. 22 м.
    Вид битрейта : Постоянный
    Битрейт : 192 Кбит/сек
    Каналы : 2 канала
    Расположение каналов : Front: L R
    Частота : 48, 0 КГц
    Битовая глубина : 16 бит
    Метод сжатия : С потерями
    Размер потока : 113 Мбайт (8%)
    Заголовок : Многоголосый закадровый (Домашний)
    Язык : Russian
    Default : Да
    Forced : Нет
    Аудио #2
    Идентификатор : 3
    Формат : AC-3
    Формат/Информация : Audio Coding 3
    Расширение режима : CM (complete main)
    Параметр Endianness формата : Big
    Идентификатор кодека : A_AC3
    Продолжительность : 1 ч. 22 м.
    Вид битрейта : Постоянный
    Битрейт : 96, 0 Кбит/сек
    Каналы : 1 канал
    Расположение каналов : Front: C
    Частота : 48, 0 КГц
    Битовая глубина : 16 бит
    Метод сжатия : С потерями
    Размер потока : 56, 7 Мбайт (4%)
    Заголовок : Многоголосый закадровый (ТВ3)
    Язык : Russian
    Default : Нет
    Forced : Нет
    Аудио #3
    Идентификатор : 4
    Формат : AC-3
    Формат/Информация : Audio Coding 3
    Расширение режима : CM (complete main)
    Параметр Endianness формата : Big
    Идентификатор кодека : A_AC3
    Продолжительность : 1 ч. 22 м.
    Вид битрейта : Постоянный
    Битрейт : 96, 0 Кбит/сек
    Каналы : 1 канал
    Расположение каналов : Front: C
    Частота : 48, 0 КГц
    Битовая глубина : 16 бит
    Метод сжатия : С потерями
    Размер потока : 56, 7 Мбайт (4%)
    Заголовок : Одноголосый закадровый
    Язык : Russian
    Default : Нет
    Forced : Нет
    Текст
    Идентификатор : 5
    Формат : UTF-8
    Идентификатор кодека : S_TEXT/UTF8
    Идентификатор кодека/Информация : UTF-8 Plain Text
    Язык : English
    Default : Да
    Forced : Нет
    Меню
    00: 00: 00.000 : en:
    00: 12: 53.689 : en:
    00: 20: 35.609 : en:
    00: 31: 35.435 : en:
    00: 39: 47.927 : en:
    00: 51: 29.835 : en:
    01: 07: 44.560 : en:
    01: 19: 20.171 : en:

    Скриншоты:


    Онлайн видео Тролль


    Размер скачиваемого торрента: 1.45 GB (1558788493 Bytes)

    Тролль/Troll (1986) HDRip-AVC | P, L1
    загрузка...
    Рейтинг →
     (голосов: 1, оценка 5/5, голосовать можно 1 раз )

    Другие торренты по теме:

  • Тролль / Troll (1986) HDTVRip 720p от MediaClub торрент скачать бесплатно
  • Тролль / Troll (1986) HDTV 1080i от Interhit торрент скачать бесплатно
  • Тролль / Troll (1986) HDTVRip от GeneralFilm | P2 скачать через торрент бесплатно
  • Тролль 2 / Troll 2 (1990) HDTV 1080i от Interhit скачать через торрент бесплатно
  • Тролль 2 / Troll 2 (1990) HDTVRip от GeneralFilm | P2 скачать через торрент бесплатно
  • Тролль 4: В поисках чудо-меча / Troll 4: Quest for the Mighty Sword / 1990 / АП (Сербин) / VHSRip скачать торрент бесплатно
  • Тролль 2 / Troll 2 (1990) BDRip 1080p от MediaClub | P2, L1 скачать торрент бесплатно
  • Охотники на троллей / Trolljegeren / The Troll Hunter (2010) BDRemux 1080p торрент скачать бесплатно


    • Комментарии (0):

      Информация

      Информация

        Посетители, находящиеся в группе Гости, не могут оставлять комментарии в данной новости.

        ↓ Меню



        ↓ Опрос

        А Вы добавили сайт в закладки?
        Да
        Не


        Top 10 за неделю (Фильмы)