.
Авторизация | Регистрация
Хочешь лучшие торренты? Добавь свой email!
Добавить
» » Американская готика / American Gothic (2016) WEB-DLRip от BaibaKo торрент скачать бесплатно




    Американская готика / American Gothic (2016) WEB-DLRip от BaibaKo торрент скачать бесплатно

    Опубликовал: Админ | Дата: 24-07-2016, 13:13 | Просмотров: 123



    Детально о кино
    Русское название: Американская готика
    Русское название в мировом прокате: American Gothic
    Создали в: 2016
    Категория жанра: детектив
    Главный режиссер: Эдвард Орнелас, Грег Биман, П.Дж. Пеше

    Актеры
    Морин Себастьян, Синди Дэй, Гэбриел Бейтман, Джастин Чэтвин, Шон Контуа, Лиза Мишель Корнелиус, Девон Коулл, Эрика Дючман

    Сюжет фильма

    Горе настигло одно крупное и богатое семейство Бостона. Эти люди всегда отличались своим ярым нравом, но теперь они молчат, провожая в последний путь главу семейства, который недавно скончался. Траур трауром, но загадочное прошлое почившего заставило людей понервничать. Так, например, близкие узнают, что их родственник оказывается замешан в череде жестоких преступлений, которые до сих пор не дают покоя простым людям в городе. К тому же живые представители семейства узнают, что среди них есть предатель, который знал обо всех планах усопшего и до сих пор планирует продолжать его дело.

    Снималось в: США
    Киностудия: Hyla Regilla Productions, Amblin Television, CBS Television Studios, Full Fathom Five
    Время просмотра: ~00: 41: 00 серия
    Перевод текста: Любительский многоголосый закадровый BaibaKo
    Файл
    Кодек для видео: AVC
    Качество фильма: WEB-DLRip
    Информация о видео: 720x400, 1 536 Kbps, 23.976 (24000/1001) fps
    Информация о звуке 1: AAC, 160 кб/с (2 ch) Русский
    Информация о звуке 2: AAC, 160 кб/с (2 ch) Английский
    Скриншоты

    Релиз подготовил: BaibaKo
    MediaInfo
    General
    Complete name : /home/roma/Відео/Американская готика/American.Gothic.s01e01.WEB-DLRip.x264.Rus.Eng.BaibaKo.tv.mp4
    Format : MPEG-4
    Format profile : Base Media
    Codec ID : isom (isom)
    File size : 551 MiB
    Duration : 41mn 22s
    Overall bit rate mode : Variable
    Overall bit rate : 1 861 Kbps
    Encoded date : UTC 2016-06-25 17: 18: 38
    Tagged date : UTC 2016-06-25 17: 18: 38
    Video
    ID : 1
    Format : AVC
    Format/Info : Advanced Video Codec
    Format profile : Baseline@L3
    Format settings, CABAC : No
    Format settings, ReFrames : 3 frames
    Codec ID : avc1
    Codec ID/Info : Advanced Video Coding
    Duration : 41mn 21s
    Bit rate : 1 536 Kbps
    Maximum bit rate : 9 521 Kbps
    Width : 720 pixels
    Height : 400 pixels
    Display aspect ratio : 16: 9
    Frame rate mode : Variable
    Frame rate : 23.976 (24000/1001) fps
    Minimum frame rate : 23.974 fps
    Maximum frame rate : 23.981 fps
    Color space : YUV
    Chroma subsampling : 4: 2: 0
    Bit depth : 8 bits
    Scan type : Progressive
    Bits/(Pixel*Frame) : 0.222
    Stream size : 454 MiB (83%)
    Writing library : x264 core 142 r2479 dd79a61
    Encoding settings : cabac=0/ref=3/deblock=1: 0: 0/analyse=0x1: 0x111/me=hex/subme=7/psy=1/psy_rd=1.00: 0.00/mixed_ref=1/me_range=16/chroma_me=1/trellis=1/8x8dct=0/cqm=0/deadzone=21, 11/fast_pskip=1/chroma_qp_offset=-2/threads=12/lookahead_threads=2/sliced_threads=0/nr=0/decimate=1/interlaced=0/bluray_compat=0/constrained_intra=0/bframes=0/weightp=0/keyint=240/keyint_min=24/scenecut=40/intra_refresh=0/rc_lookahead=40/rc=2pass/mbtree=1/bitrate=1536/ratetol=1.0/qcomp=0.60/qpmin=0/qpmax=69/qpstep=4/cplxblur=20.0/qblur=0.5/vbv_maxrate=10000/vbv_bufsize=10000/nal_hrd=none/filler=0/ip_ratio=1.40/aq=1: 1.00
    Encoded date : UTC 2016-06-25 14: 55: 11
    Tagged date : UTC 2016-06-25 17: 18: 46
    Color range : Limited
    Color primaries : BT.709
    Transfer characteristics : BT.709
    Matrix coefficients : BT.709
    Audio #1
    ID : 2
    Format : AAC
    Format/Info : Advanced Audio Codec
    Format profile : LC
    Codec ID : 40
    Duration : 41mn 22s
    Bit rate mode : Variable
    Bit rate : 160 Kbps
    Maximum bit rate : 168 Kbps
    Channel(s) : 2 channels
    Channel positions : Front: L R
    Sampling rate : 48.0 KHz
    Frame rate : 46.875 fps (1024 spf)
    Compression mode : Lossy
    Stream size : 47.3 MiB (9%)
    Language : Russian
    Encoded date : UTC 2016-06-25 17: 18: 43
    Tagged date : UTC 2016-06-25 17: 18: 46
    Audio #2
    ID : 3
    Format : AAC
    Format/Info : Advanced Audio Codec
    Format profile : LC
    Codec ID : 40
    Duration : 41mn 22s
    Bit rate mode : Variable
    Bit rate : 160 Kbps
    Maximum bit rate : 168 Kbps
    Channel(s) : 2 channels
    Channel positions : Front: L R
    Sampling rate : 48.0 KHz
    Frame rate : 46.875 fps (1024 spf)
    Compression mode : Lossy
    Stream size : 47.3 MiB (9%)
    Language : English
    Encoded date : UTC 2016-06-25 17: 18: 44
    Tagged date : UTC 2016-06-25 17: 18: 46

    Раздача ведется путем добавления новых серий
    Когда раздача ведётся путём добавления новых серий, при каждом добавлении создётся новый торрент. Чтобы начать докачку новой серии, пользователям необходимо сделать следующее:
    (1) остановить скачивание,
    (2) удалить старый торрент у себя из клиента (старые серии удалять не надо),
    (3) скачать новый торрент и запустить его у себя в клиенте вместо старого, при этом указать клиенту путь в старую папку, куда и должно происходить скачивание новых серий.
    Ваш клиент при этом должен произвести хеширование (проверку) старой папки (если не производит сам - помогите ему сделать это), и будет докачивать только те серии, которых у вас ещё нет. Старые серии при этом не удаляются, а продолжают раздаваться!
    Eсли вы уже удалили старые серии, то предотвратить повторную закачку старых серий можно, отжав галочку в соответсвующих местах при запуске нового торрента. По возможности, желательно не удалять старые серии как можно дольше, чтобы релизёр не столько продолжал раздавать старые серии, а смог сконцентрироваться на новых.

    Залил: romanR10

    Онлайн видео Американская готика


    Размер скачиваемого торрента: 2.74 GB (2937895085 Bytes)

    Американская готика/American Gothic (2016) WEB-DLRip от BaibaKo
    загрузка...
    Рейтинг →
     (голосов: 1, оценка 3/5, голосовать можно 1 раз )

    Другие торренты по теме:

  • Американская готика / American Gothic (2016) HDTV 720p | OMSKBIRD
  • Американская готика / American Gothic (2016) WEB-DL 720p | NewStudio
  • Американская готика / American Gothic (2016) WEB-DLRip | NewStudio
  • Американская готика / American Gothic (2016) WEB-DLRip | IdeaFilm
  • Американская готика / American Gothic (2016) HDTV 720p | OMSKBIRD
  • Американская готика / American Gothic (2016) WEB-DL 720p | IdeaFilm
  • Американская готика / American Gothic (2016) HDTV 720p | OMSKBIRD
  • Американская готика / American Gothic (2016) HDTV 720p | OMSKBIRD


    • Комментарии (0):

      Информация

      Информация

        Посетители, находящиеся в группе Гости, не могут оставлять комментарии в данной новости.

        ↓ Меню



        ↓ Опрос

        А Вы добавили сайт в закладки?
        Да
        Не


        Top 10 за месяц (Фильмы)