.
Авторизация | Регистрация
» » Уроки вождения / Learning to Drive (2014) BDRip 720p | D | Line скачать торрент бесплатно




    Уроки вождения / Learning to Drive (2014) BDRip 720p | D | Line скачать торрент бесплатно

    Опубликовал: Админ | Дата: 24-07-2016, 13:14 | Просмотров: 106



    Детально о кино
    Русское название: Уроки вождения
    Русское название в мировом прокате: Learning to Drive
    Создали в: 2014
    Категория жанра: драма, мелодрама, комедия
    Главный режиссер: Изабель Койшет

    Актеры
    Бен Кингсли, Патришия Кларксон, Грэйс Гаммер, Джейк Уэбер, Сарита Чоудри, Джон Ходжмэн, Даниэла Лавендер, Саманта Би, Мэтт Сэлинджер, Эви Нэш
    Слоган: Hикогда не бывает слишком поздно, чтобы начать новое приключение

    Сюжет фильма
    После того, как брак писательницы из Манхеттена распадается, она берет уроки вождения у инструктора по имени Сикх, который недавно развелся с женой. Общая проблема позволит им найти в себе силы и мужество, чтобы вернуться на дорогу и сесть за руль.

    Снималось в: Великобритания, США/Broad Green Pictures, Core Pictures, Lavender Pictures
    Время просмотра: 01: 29: 39
    Перевод текста: Дублированный Line
    Файл
    Качество фильма: BDRip 720p
    Тип видео: MKV
    Информация о видео: AVC, 3500 Kbps, 1280x688
    Информация о звуке: Русский (AC3, 2 ch, 384 Кбит/с), английский (DTS, 6 ch, 1509 Кбит/с)
    Субтитры: Aнглийские
    Дополнительно: Сохранены оригинальные главы (чаптеры)


    MediaInfo:
    Format : Matroska
    Format version : Version 4/Version 2
    File size : 3.38 GiB
    Duration : 1h 29mn
    Overall bit rate : 5 392 Kbps
    Movie name : Rip by basma4i
    Encoded date : UTC 2016-07-22 11: 27: 02
    Writing application : mkvmerge v8.2.0 (;World of Adventure;) 64bit
    Writing library : XviD4PSP 6.0/54.29.105
    DURATION : 01: 20: 42.708000000
    NUMBER_OF_FRAMES : 1155
    NUMBER_OF_BYTES : 35002
    _STATISTICS_WRITING_APP : mkvmerge v8.2.0 (;World of Adventure;) 64bit
    _STATISTICS_WRITING_DATE_UTC : 2016-07-23 00: 53: 59
    _STATISTICS_TAGS : BPS DURATION NUMBER_OF_FRAMES NUMBER_OF_BYTES
    Video
    ID : 1
    Format : AVC
    Format/Info : Advanced Video Codec
    Format profile : Main@L4.1
    Format settings, CABAC : Yes
    Format settings, ReFrames : 4 frames
    Codec ID : V_MPEG4/ISO/AVC
    Duration : 1h 29mn
    Bit rate : 3 500 Kbps
    Width : 1 280 pixels
    Height : 688 pixels
    Display aspect ratio : 1.85: 1
    Original display aspect ratio : 1.85: 1
    Frame rate mode : Constant
    Frame rate : 24.000 fps
    Color space : YUV
    Chroma subsampling : 4: 2: 0
    Bit depth : 8 bits
    Scan type : Progressive
    Bits/(Pixel*Frame) : 0.166
    Stream size : 2.12 GiB (63%)
    Writing library : x264 core 128 r2216M 198a7ea
    Encoding settings : cabac=1/ref=5/deblock=1: -3: -3/analyse=0x1: 0x111/me=umh/subme=11/psy=1/psy_rd=1.00: 0.20/mixed_ref=0/me_range=32/chroma_me=1/trellis=2/8x8dct=0/cqm=0/deadzone=21, 11/fast_pskip=1/chroma_qp_offset=-6/threads=11/lookahead_threads=1/sliced_threads=0/nr=0/decimate=1/interlaced=0/bluray_compat=0/constrained_intra=0/bframes=11/b_pyramid=1/b_adapt=2/b_bias=10/direct=3/weightb=1/open_gop=0/weightp=2/keyint=240/keyint_min=24/scenecut=40/intra_refresh=0/rc_lookahead=40/rc=2pass/mbtree=1/bitrate=3500/ratetol=1.0/qcomp=0.60/qpmin=1/qpmax=69/qpstep=4/cplxblur=20.0/qblur=0.5/ip_ratio=1.40/aq=1: 1.00
    Language : English
    Default : Yes
    Forced : No
    DURATION : 01: 29: 39.417000000
    NUMBER_OF_FRAMES : 129106
    NUMBER_OF_BYTES : 2351191380
    _STATISTICS_WRITING_APP : mkvmerge v8.2.0 (;World of Adventure;) 64bit
    _STATISTICS_WRITING_DATE_UTC : 2016-07-23 00: 53: 59
    _STATISTICS_TAGS : BPS DURATION NUMBER_OF_FRAMES NUMBER_OF_BYTES
    Audio #1
    ID : 2
    Format : AC-3
    Format/Info : Audio Coding 3
    Mode extension : CM (complete main)
    Format settings, Endianness : Big
    Codec ID : A_AC3
    Duration : 1h 29mn
    Bit rate mode : Constant
    Bit rate : 384 Kbps
    Channel(s) : 2 channels
    Channel positions : Front: L R
    Sampling rate : 48.0 KHz
    Compression mode : Lossy
    Stream size : 246 MiB (7%)
    Language : Russian
    Default : Yes
    Forced : No
    Audio #2
    ID : 3
    Format : DTS
    Format/Info : Digital Theater Systems
    Mode : 16
    Format settings, Endianness : Big
    Codec ID : A_DTS
    Duration : 1h 29mn
    Bit rate mode : Constant
    Bit rate : 1 509 Kbps
    Channel(s) : 6 channels
    Channel positions : Front: L C R, Side: L R, LFE
    Sampling rate : 48.0 KHz
    Bit depth : 16 bits
    Compression mode : Lossy
    Stream size : 968 MiB (28%)
    Language : English
    Default : No
    Forced : No
    DURATION : 01: 29: 39.510000000
    NUMBER_OF_FRAMES : 504329
    NUMBER_OF_BYTES : 1014709948
    _STATISTICS_WRITING_APP : mkvmerge v8.2.0 (;World of Adventure;) 64bit
    _STATISTICS_WRITING_DATE_UTC : 2016-07-23 00: 53: 59
    _STATISTICS_TAGS : BPS DURATION NUMBER_OF_FRAMES NUMBER_OF_BYTES
    Text
    ID : 4
    Format : UTF-8
    Codec ID : S_TEXT/UTF8
    Codec ID/Info : UTF-8 Plain Text
    Language : English
    Default : No
    Forced : No
    Menu
    00: 00: 00.000 : en: Chapter 01
    00: 06: 42.375 : en: Chapter 02
    00: 14: 16.208 : en: Chapter 03
    00: 21: 29.541 : en: Chapter 04
    00: 27: 57.708 : en: Chapter 05
    00: 35: 47.791 : en: Chapter 06
    00: 45: 00.791 : en: Chapter 07
    00: 52: 55.750 : en: Chapter 08
    01: 01: 38.875 : en: Chapter 09
    01: 09: 48.625 : en: Chapter 10
    01: 15: 12.250 : en: Chapter 11
    01: 21: 55.458 : en: Chapter 12
    Скриншоты


    Онлайн видео Уроки вождения


    Размер скачиваемого торрента: 3.38 GB (3625846425 Bytes)

    Уроки вождения/Learning to Drive (2014) BDRip 720p | D | Line
    загрузка...
    Рейтинг →
     (голосов: 1, оценка 3/5, голосовать можно 1 раз )

    Другие торренты по теме:



      Комментарии (0):

      Информация

      Информация

        Посетители, находящиеся в группе Гости, не могут оставлять комментарии в данной новости.

        ↓ Меню



        ↓ Опрос

        А Вы добавили сайт в закладки?
        Да
        Не


        Top 10 за неделю (Фильмы)