.
Авторизация | Регистрация
» » Любовь втроем / 3 (2010) BDRip 720p | Лицензия скачать торрент бесплатно




    Любовь втроем / 3 (2010) BDRip 720p | Лицензия скачать торрент бесплатно

    Опубликовал: Админ | Дата: 25-07-2016, 05:00 | Просмотров: 57



    Детально о кино
    Русское название: Любовь втроем
    Русское название в мировом прокате: 3
    Создали в: 2010
    Категория жанра: Артхаус, драма, мелодрама, комедия,
    Главный режиссер: Том Тыквер/Tom Tykwer

    Актеры
    Софи Роиз, Себастьян Шиппер, Девид Штрисов, Аннидор Клейст, Ангела Винклер, Александр Хорби, Винни Бёве, Ханс-Уве Бауэр, Питер Бенедикт, Жоржетт Ди

    Сюжет фильма


    Награды:
    Скрытый текст

    Европейская киноакадемия, 2011 год
    Номинации (1):
    Лучший монтаж

    Венецианский кинофестиваль, 2010 год
    Номинации (1):
    Золотой лев



    Снималось в: Германия
    Время просмотра: 01: 58: 46
    Перевод текста: Русский: профессиональный многоголосый закадровый

    MediaInfo:

    Общее
    Уникальный идентификатор : 188853536474562799561306309282587845954 (0x8E13DE3BCCDA69408ED093E81591A542)
    Полное имя : F: TempLjubov.vtroem.2010.x264.BDRip.720p.Rus.Ger.IRONCLUB.mkv
    Формат : Matroska
    Версия формата : Version 4/Version 2
    Размер файла : 4, 75 Гбайт
    Продолжительность : 1 ч. 58 м.
    Общий поток : 5721 Кбит/сек
    Название фильма : IRONCLUB
    Дата кодирования : UTC 2016-07-24 16: 12: 35
    Программа кодирования : mkvmerge v7.9.0 (;Birds;) 64bit
    Библиотека кодирования : libebml v1.3.1 + libmatroska v1.4.2
    DURATION : 01: 50: 16.368000000
    NUMBER_OF_FRAMES : 955
    NUMBER_OF_BYTES : 34554
    _STATISTICS_WRITING_APP : mkvmerge v7.9.0 (;Birds;) 64bit
    _STATISTICS_WRITING_DATE_UTC : 2016-07-24 16: 12: 35
    _STATISTICS_TAGS : BPS DURATION NUMBER_OF_FRAMES NUMBER_OF_BYTES
    Видео
    Идентификатор : 1
    Формат : AVC
    Формат/Информация : Advanced Video Codec
    Профиль формата : High@L4.1
    Параметр CABAC формата : Да
    Параметр ReFrames формата : 5 кадров
    Идентификатор кодека : V_MPEG4/ISO/AVC
    Продолжительность : 1 ч. 58 м.
    Битрейт : 3762 Кбит/сек
    Ширина : 1280 пикселей
    Высота : 544 пикселя
    Соотношение сторон : 2, 35: 1
    Режим частоты кадров : Постоянный
    Частота кадров : 24, 000 кадра/сек
    Цветовое пространство : YUV
    Субдискретизация насыщенности : 4: 2: 0
    Битовая глубина : 8 бит
    Тип развёртки : Прогрессивная
    Бит/(Пиксели*Кадры) : 0.225
    Размер потока : 3, 03 Гбайт (64%)
    Заголовок : 3/Drei (2010)
    Библиотека кодирования : x264 core 115 r1995 c1e60b9
    Настройки программы : cabac=1/ref=5/deblock=1: 0: 0/analyse=0x3: 0x113/me=umh/subme=7/psy=1/psy_rd=1.00: 0.00/mixed_ref=1/me_range=16/chroma_me=1/trellis=1/8x8dct=1/cqm=0/deadzone=21, 11/fast_pskip=0/chroma_qp_offset=-2/threads=12/sliced_threads=0/nr=0/decimate=1/interlaced=0/bluray_compat=0/constrained_intra=0/bframes=3/b_pyramid=2/b_adapt=1/b_bias=0/direct=1/weightb=1/open_gop=0/weightp=2/keyint=250/keyint_min=24/scenecut=40/intra_refresh=0/rc_lookahead=40/rc=2pass/mbtree=1/bitrate=3762/ratetol=1.0/qcomp=0.60/qpmin=0/qpmax=69/qpstep=4/cplxblur=20.0/qblur=0.5/ip_ratio=1.40/aq=1: 1.00
    Язык : German
    Default : Да
    Forced : Да
    DURATION : 01: 58: 46.917000000
    NUMBER_OF_FRAMES : 171046
    NUMBER_OF_BYTES : 3350909537
    _STATISTICS_WRITING_APP : mkvmerge v7.9.0 (;Birds;) 64bit
    _STATISTICS_WRITING_DATE_UTC : 2016-07-24 16: 12: 35
    _STATISTICS_TAGS : BPS DURATION NUMBER_OF_FRAMES NUMBER_OF_BYTES
    Аудио #1
    Идентификатор : 2
    Формат : AC-3
    Формат/Информация : Audio Coding 3
    Расширение режима : CM (complete main)
    Параметр Endianness формата : Big
    Идентификатор кодека : A_AC3
    Продолжительность : 1 ч. 58 м.
    Вид битрейта : Постоянный
    Битрейт : 448 Кбит/сек
    Каналы : 6 каналов
    Расположение каналов : Front: L C R, Side: L R, LFE
    Частота : 48, 0 КГц
    Битовая глубина : 16 бит
    Метод сжатия : С потерями
    Размер потока : 381 Мбайт (8%)
    Заголовок : DD 5.1 @ 448 kbps - Dub, R5
    Язык : Russian
    Default : Да
    Forced : Да
    Аудио #2
    Идентификатор : 3
    Формат : DTS
    Формат/Информация : Digital Theater Systems
    Режим : 16
    Параметр Endianness формата : Big
    Идентификатор кодека : A_DTS
    Продолжительность : 1 ч. 58 м.
    Вид битрейта : Постоянный
    Битрейт : 1509 Кбит/сек
    Каналы : 6 каналов
    Расположение каналов : Front: L C R, Side: L R, LFE
    Частота : 48, 0 КГц
    Битовая глубина : 24 бит
    Метод сжатия : С потерями
    Размер потока : 1, 25 Гбайт (26%)
    Заголовок : DTS 5.1 @ 1536 kbps
    Язык : German
    Default : Нет
    Forced : Нет
    Текст #1
    Идентификатор : 4
    Формат : UTF-8
    Идентификатор кодека : S_TEXT/UTF8
    Идентификатор кодека/Информация : UTF-8 Plain Text
    Заголовок : Srt
    Язык : English
    Default : Да
    Forced : Нет
    Текст #2
    Идентификатор : 5
    Формат : UTF-8
    Идентификатор кодека : S_TEXT/UTF8
    Идентификатор кодека/Информация : UTF-8 Plain Text
    Заголовок : Srt
    Язык : German
    Default : Нет
    Forced : Нет
    Меню
    00: 00: 00.000 : : 00: 00: 00.000
    00: 05: 00.625 : : 00: 05: 00.625
    00: 11: 41.833 : : 00: 11: 41.833
    00: 18: 36.708 : : 00: 18: 36.708
    00: 26: 12.250 : : 00: 26: 12.250
    00: 30: 54.958 : : 00: 30: 54.958
    00: 34: 55.542 : : 00: 34: 55.542
    00: 43: 35.667 : : 00: 43: 35.667
    00: 50: 55.958 : : 00: 50: 55.958
    00: 54: 06.250 : : 00: 54: 06.250
    01: 02: 32.708 : : 01: 02: 32.708
    01: 16: 01.333 : : 01: 16: 01.333
    01: 23: 50.125 : : 01: 23: 50.125
    01: 28: 53.708 : : 01: 28: 53.708
    01: 33: 23.625 : : 01: 33: 23.625
    01: 37: 39.250 : : 01: 37: 39.250
    01: 47: 34.750 : : 01: 47: 34.750
    01: 55: 08.250 : : 01: 55: 08.250

    Файл
    Кодек для видео: x.264
    Качество фильма: BDRip 720p
    Информация о видео: 1280x544 (2.35: 1), 24.000 fps, AVC, ~3762 Kbps, 0.225 bits/pixel
    Информация о звуке:
    #1: Russian, 48.0 KHz, AC3, 6 ch, 448 Kbps - DD 5.1 @ 448 kbps - Dub, R5
    #2: German, 48.0 KHz, DTS, 6 ch, 1510 Kbps - DTS 5.1 @ 1536 kbps
    Субтитры: English, German
    Скриншоты

    Релиз подготовил:

    Онлайн видео Любовь втроем


    Размер скачиваемого торрента: 4.75 GB (5096758028 Bytes)

    Любовь втроем/3 (2010) BDRip 720p | Лицензия
    загрузка...
    Рейтинг →
     (голосов: 1, оценка 3/5, голосовать можно 1 раз )

    Другие торренты по теме:



      Комментарии (0):

      Информация

      Информация

        Посетители, находящиеся в группе Гости, не могут оставлять комментарии в данной новости.

        ↓ Меню



        ↓ Опрос

        А Вы добавили сайт в закладки?
        Да
        Не


        Top 10 за неделю (Фильмы)