.
Авторизация | Регистрация
» » Манхэттенская ночь / Manhattan Night (2016) BDRip 720p от ExKinoRay | L скачать торрент бесплатно




    Манхэттенская ночь / Manhattan Night (2016) BDRip 720p от ExKinoRay | L скачать торрент бесплатно

    Опубликовал: Админ | Дата: 26-07-2016, 05:00 | Просмотров: 41



    Детально о кино
    Русское название: Манхэттенская ночь
    Русское название в мировом прокате: Manhattan Night
    Создали в: 2016
    Категория жанра: триллер, драма, криминал, детектив
    Главный режиссер: Брайан ДеКьюбелис

    Актеры
    Ивонн Страховски, Эдриан Броуди, Дженнифер Билз, Кэмпбелл Скотт, Стивен Беркофф, Линда Лавин, Кевин Брезнахан, Амели МакКендри, Томас Баир, Мэдисон Элизабет Лахарес

    Сюжет фильма

    С просьбы соблазнительной незнакомки разобраться в нераскрытом убийстве ее мужа начинается неприятная история сексуальной одержимости и шантажа, которая может стоить журналисту Портеру Рену его работы, семьи и даже жизни.

    Снималось в: США
    Киностудия: DeCubellis Films, Untravelled Worlds, Fable House
    Время просмотра: 01: 54: 26
    Перевод текста: Любительский многоголосый (закадровый) | СПД
    Файл
    Кодек для видео: x264
    Качество фильма: BDRip 720p
    Информация о видео: 1280x534, 6396 Kbit/s, 23.976 fps
    Информация о звуке:
    Информация о звуке #01: 48 kHz, AC3, 5.1, 448 Kbps | Любительский многоголосый (закадровый) | СПД |
    Информация о звуке #02: 48 kHz, DTS, 5.1, 1510 kbps | Оригинал |
    Субтитры: Английские
    MI
    General
    Unique ID : 227245334628970113412307861031782028245 (0xAAF5DC061F614018BAA920A1831D93D5)
    Complete name : G: VideoНовая папка (2)Manhattan.Night.2016.MVO.BDRip.720p.ExKinoRay.mkv
    Format : Matroska
    Format version : Version 4/Version 2
    File size : 6.65 GiB
    Duration : 1h 53mn
    Overall bit rate : 8 355 Kbps
    Movie name : Manhattan.Night.2016.MVO.BDRip.720p.ExKinoRay
    Encoded date : UTC 2016-07-25 07: 03: 53
    Writing application : mkvmerge v8.3.0 (;Over the Horizon;) 64bit
    Writing library : libebml v1.3.1 + libmatroska v1.4.2
    Video
    ID : 1
    Format : AVC
    Format/Info : Advanced Video Codec
    Format profile : High@L4.1
    Format settings, CABAC : Yes
    Format settings, ReFrames : 12 frames
    Codec ID : V_MPEG4/ISO/AVC
    Duration : 1h 53mn
    Bit rate : 6 396 Kbps
    Width : 1 280 pixels
    Height : 534 pixels
    Display aspect ratio : 2.40: 1
    Frame rate mode : Constant
    Frame rate : 23.976 (24000/1001) fps
    Color space : YUV
    Chroma subsampling : 4: 2: 0
    Bit depth : 8 bits
    Scan type : Progressive
    Bits/(Pixel*Frame) : 0.390
    Stream size : 5.09 GiB (77%)
    Writing library : x264 core 142 r2431+42 c69a006 tMod 8-bit@all X86_64
    Encoding settings : cabac=1/ref=12/deblock=1: -3: -3/analyse=0x3: 0x133/me=umh/subme=11/psy=1/fade_compensate=0.00/psy_rd=1.05: 1.00/mixed_ref=1/me_range=32/chroma_me=1/trellis=2/8x8dct=1/cqm=0/deadzone=21, 11/fast_pskip=0/chroma_qp_offset=-4/threads=12/lookahead_threads=2/sliced_threads=0/nr=0/decimate=0/interlaced=0/bluray_compat=0/constrained_intra=0/fgo=0/bframes=8/b_pyramid=2/b_adapt=2/b_bias=0/direct=3/weightb=1/open_gop=0/weightp=2/keyint=240/keyint_min=23/scenecut=40/intra_refresh=0/rc_lookahead=60/rc=crf/mbtree=0/crf=16.7000/qcomp=0.60/qpmin=0: 0: 0/qpmax=69: 69: 69/qpstep=4/vbv_maxrate=40000/vbv_bufsize=30000/crf_max=0.0/nal_hrd=none/filler=0/ip_ratio=1.40/pb_ratio=1.30/aq=1: 1.00/aq-sensitivity=10.00/aq-factor=1.00: 1.00: 1.00/aq2=0/aq3=0
    Language : English
    Default : Yes
    Forced : No
    Audio #1
    ID : 2
    Format : AC-3
    Format/Info : Audio Coding 3
    Mode extension : CM (complete main)
    Format settings, Endianness : Big
    Codec ID : A_AC3
    Duration : 1h 53mn
    Bit rate mode : Constant
    Bit rate : 448 Kbps
    Channel(s) : 6 channels
    Channel positions : Front: L C R, Side: L R, LFE
    Sampling rate : 48.0 KHz
    Frame rate : 31.250 fps (1536 spf)
    Compression mode : Lossy
    Stream size : 365 MiB (5%)
    Title : MVO
    Language : Russian
    Default : Yes
    Forced : No
    Audio #2
    ID : 3
    Format : DTS
    Format/Info : Digital Theater Systems
    Mode : 16
    Format settings, Endianness : Big
    Codec ID : A_DTS
    Duration : 1h 53mn
    Bit rate mode : Constant
    Bit rate : 1 509 Kbps
    Channel(s) : 6 channels
    Channel positions : Front: L C R, Side: L R, LFE
    Sampling rate : 48.0 KHz
    Frame rate : 93.750 fps (512 spf)
    Bit depth : 24 bits
    Compression mode : Lossy
    Stream size : 1.20 GiB (18%)
    Title : Original
    Language : English
    Default : No
    Forced : No
    Text #1
    ID : 4
    Format : UTF-8
    Codec ID : S_TEXT/UTF8
    Codec ID/Info : UTF-8 Plain Text
    Duration : 1h 46mn
    Bit rate : 56 bps
    Count of elements : 1261
    Stream size : 43.7 KiB (0%)
    Title : Full
    Language : English
    Default : No
    Forced : No
    Text #2
    ID : 5
    Format : UTF-8
    Codec ID : S_TEXT/UTF8
    Codec ID/Info : UTF-8 Plain Text
    Duration : 1h 52mn
    Bit rate : 65 bps
    Count of elements : 1522
    Stream size : 54.1 KiB (0%)
    Title : SDH
    Language : English
    Default : No
    Forced : No
    Menu
    00: 00: 00.000 : en: 00: 00: 00.000
    00: 09: 27.150 : en: 00: 09: 27.150
    00: 14: 56.562 : en: 00: 14: 56.562
    00: 25: 48.714 : en: 00: 25: 48.714
    00: 32: 18.770 : en: 00: 32: 18.770
    00: 39: 42.672 : en: 00: 39: 42.672
    00: 48: 02.838 : en: 00: 48: 02.838
    00: 59: 05.208 : en: 00: 59: 05.208
    01: 06: 32.030 : en: 01: 06: 32.030
    01: 11: 48.471 : en: 01: 11: 48.471
    01: 18: 48.849 : en: 01: 18: 48.849
    01: 25: 02.389 : en: 01: 25: 02.389
    01: 29: 03.004 : en: 01: 29: 03.004
    01: 31: 47.836 : en: 01: 31: 47.836
    01: 40: 28.022 : en: 01: 40: 28.022
    01: 46: 12.408 : en: 01: 46: 12.408
    Скриншоты

    Релиз подготовил: Автор релиза:

    Онлайн видео Манхэттенская ночь


    Размер скачиваемого торрента: 6.65 GB (7140644309 Bytes)

    Манхэттенская ночь/Manhattan Night (2016) BDRip 720p от ExKinoRay | L
    загрузка...
    Рейтинг →
     (голосов: 1, оценка 4/5, голосовать можно 1 раз )

    Другие торренты по теме:

  • Манхэттенская ночь / Manhattan Night (2016) WEB-DLRip | L скачать торрент бесплатно
  • Манхэттенская ночь / Manhattan Night (2016) WEB-DLRip | L скачать торрент бесплатно
  • Манхэттенская ночь / Manhattan Night (2016) скачать торрент бесплатно
  • Манхэттенская ночь / Manhattan Night (2016) HDRip от MegaPeer | L скачать торрент бесплатно


    • Комментарии (0):

      Информация

      Информация

        Посетители, находящиеся в группе Гости, не могут оставлять комментарии в данной новости.

        ↓ Меню



        ↓ Опрос

        А Вы добавили сайт в закладки?
        Да
        Не


        Top 10 за неделю (Фильмы)