.
Авторизация | Регистрация
» » Дорогой Фрэнки / Dear Frankie (2003) WEB-DL 1080p | D, P скачать торрент бесплатно




    Дорогой Фрэнки / Dear Frankie (2003) WEB-DL 1080p | D, P скачать торрент бесплатно

    Опубликовал: Админ | Дата: 26-07-2016, 05:01 | Просмотров: 40



    Детально о кино
    Русское название: Дорогой Фрэнки
    Русское название в мировом прокате: Dear Frankie
    Создали в: 2003
    Категория жанра: драма, мелодрама
    Главный режиссер: Шона Ауэрбак

    Актеры
    Джерард Батлер, Эмили Мортимер, Джек МакЭлхоун, Мэри Ригганс, Шэрон Смолл, Софи Майн, Кэти Мёрфи, Шон Браун, Джейд Джонсон, Анна Хепбёрн

    Сюжет фильма

    История девятилетнего Фрэнки и его мамы Лиззи, переезжающих с места на место, сколько мальчик себя помнит. Мать хочет защитить своего сына от правды, но необходимость удовлетворить любопытство мальчика заставляет Лиззи придумать правдоподобную историю — она регулярно пишет Фрэнки письма от имени его вымышленного отца, который якобы плавает на корабле по экзотическим странам.
    Неожиданно Лиззи узнаёт, что корабль отца зайдёт в их порт через несколько дней. Теперь она должна сделать выбор — рассказать Фрэнки правду или решиться на отчаянный план и найти идеального незнакомца на роль идеального отца…

    Снималось в: Великобритания
    Киностудия: Inside Track Productions, Path? Pictures International, Scorpio Films, Scottish Screen
    Время просмотра: 01: 44: 48
    Перевод текста: Профессиональный (дублированный) West Video + Профессиональный (многоголосый, закадровый)
    Файл
    Тип видео: Matroska
    Информация о видео: 1916x1072 at 23.976 fps, MPEG-4 AVC, ~4600 kbps avg
    Информация о звуке#1: Russian: 48 kHz, AC3 Dolby Digital, 3/2 (L, C, R, l, r) + LFE ch, ~384.00 kbps avg|Дубляж, West Video|
    Информация о звуке#2: Russian: 48 kHz, AC3 Dolby Digital, 3/2 (L, C, R, l, r) + LFE ch, ~384.00 kbps avg|Многоголосый закадровый|
    Информация о звуке#3: English: 48 kHz, AC3 Dolby Digital, 3/2 (L, C, R, l, r) + LFE ch, ~384.00 kbps avg
    Субтитры: Russian, English
    ***Сохранены и подписаны оригинальные главы.
    ***Релиз - Pigy.
    MI
    Общее
    Уникальный идентификатор : 196740820903757330892114544040562124390 (0x9402E761272B8034A8E0E13F5887E666)
    Полное имя : Dear Frankie 2004 WEB-DL 1080p.mkv
    Формат : Matroska
    Версия формата : Version 4/Version 2
    Размер файла : 4, 34 Гбайт
    Продолжительность : 1 ч. 44 м.
    Общий поток : 5931 Кбит/сек
    Дата кодирования : UTC 2016-03-16 06: 03: 16
    Программа кодирования : mkvmerge v6.1.0 (;Old Devil;) built on Mar 2 2013 14: 32: 37
    Библиотека кодирования : libebml v1.3.0 + libmatroska v1.4.0
    Видео
    Идентификатор : 1
    Формат : AVC
    Формат/Информация : Advanced Video Codec
    Профиль формата : High@L4
    Параметр CABAC формата : Да
    Параметр ReFrames формата : 4 кадра
    Параметр GOP формата : N=1
    Идентификатор кодека : V_MPEG4/ISO/AVC
    Продолжительность : 1 ч. 44 м.
    Битрейт : 4661 Кбит/сек
    Ширина : 1916 пикселей
    Высота : 1072 пикселя
    Соотношение сторон : 16: 9
    Режим частоты кадров : Постоянный
    Частота кадров : 23, 976 кадра/сек
    Цветовое пространство : YUV
    Субдискретизация насыщенности : 4: 2: 0
    Битовая глубина : 8 бит
    Тип развёртки : Прогрессивная
    Бит/(Пиксели*Кадры) : 0.095
    Размер потока : 3, 41 Гбайт (79%)
    Язык : English
    Default : Да
    Forced : Нет
    Цветовой диапазон : Limited
    Основные цвета : BT.709
    Характеристики трансфера : BT.709
    Коэффициенты матрицы : BT.709
    Аудио #1
    Идентификатор : 2
    Формат : AC-3
    Формат/Информация : Audio Coding 3
    Расширение режима : CM (complete main)
    Параметр Endianness формата : Big
    Идентификатор кодека : A_AC3
    Продолжительность : 1 ч. 44 м.
    Вид битрейта : Постоянный
    Битрейт : 384 Кбит/сек
    Каналы : 6 каналов
    Расположение каналов : Front: L C R, Side: L R, LFE
    Частота : 48, 0 КГц
    Метод сжатия : С потерями
    Размер потока : 288 Мбайт (6%)
    Заголовок : Dub
    Язык : Russian
    Default : Да
    Forced : Нет
    Аудио #2
    Идентификатор : 3
    Формат : AC-3
    Формат/Информация : Audio Coding 3
    Расширение режима : CM (complete main)
    Параметр Endianness формата : Big
    Идентификатор кодека : A_AC3
    Продолжительность : 1 ч. 44 м.
    Вид битрейта : Постоянный
    Битрейт : 384 Кбит/сек
    Каналы : 6 каналов
    Расположение каналов : Front: L C R, Side: L R, LFE
    Частота : 48, 0 КГц
    Метод сжатия : С потерями
    Размер потока : 288 Мбайт (6%)
    Заголовок : MVO
    Язык : Russian
    Default : Нет
    Forced : Нет
    Аудио #3
    Идентификатор : 4
    Формат : AC-3
    Формат/Информация : Audio Coding 3
    Расширение режима : CM (complete main)
    Параметр Endianness формата : Big
    Идентификатор кодека : A_AC3
    Продолжительность : 1 ч. 44 м.
    Вид битрейта : Постоянный
    Битрейт : 384 Кбит/сек
    Каналы : 6 каналов
    Расположение каналов : Front: L C R, Side: L R, LFE
    Частота : 48, 0 КГц
    Метод сжатия : С потерями
    Размер потока : 288 Мбайт (6%)
    Язык : English
    Default : Нет
    Forced : Нет
    Текст #1
    Идентификатор : 5
    Формат : UTF-8
    Идентификатор кодека : S_TEXT/UTF8
    Идентификатор кодека/Информация : UTF-8 Plain Text
    Язык : Russian
    Default : Нет
    Forced : Нет
    Текст #2
    Идентификатор : 6
    Формат : UTF-8
    Идентификатор кодека : S_TEXT/UTF8
    Идентификатор кодека/Информация : UTF-8 Plain Text
    Язык : English
    Default : Нет
    Forced : Нет
    Меню
    00: 00: 00.000 : en: Moving Again
    00: 06: 29.000 : en: Stamps Secrets
    00: 14: 49.000 : en: New Friends
    00: 19: 26.000 : en: The Bet
    00: 25: 21.000 : en: Mommy;s Wardrobe
    00: 31: 22.000 : en: Looking For A Man
    00: 38: 04.000 : en: The Stranger
    00: 47: 10.000 : en: Winning The Bet
    00: 53: 05.000 : en: A Day With Dad
    01: 04: 28.000 : en: Flesh Blood
    01: 09: 51.000 : en: One More Day
    01: 20: 15.000 : en: We;re All Connected
    01: 29: 56.000 : en: Obituary
    01: 38: 19.000 : en: Last Letter
    01: 42: 08.000 : en: End Credits
    Скриншоты



    Онлайн видео Дорогой Фрэнки


    Размер скачиваемого торрента: 4.34 GB (4662357691 Bytes)

    Дорогой Фрэнки/Dear Frankie (2003) WEB-DL 1080p | D, P
    загрузка...
    Рейтинг →
     (голосов: 1, оценка 4/5, голосовать можно 1 раз )

    Другие торренты по теме:



      Комментарии (0):

      Информация

      Информация

        Посетители, находящиеся в группе Гости, не могут оставлять комментарии в данной новости.

        ↓ Меню



        ↓ Опрос

        А Вы добавили сайт в закладки?
        Да
        Не


        Top 10 за неделю (Фильмы)