.
Авторизация | Регистрация
» » Слушание / Подтверждение / Confirmation (2016) BDRip 1080p от ExKinoRay | P скачать торрент бесплатно




    Слушание / Подтверждение / Confirmation (2016) BDRip 1080p от ExKinoRay | P скачать торрент бесплатно

    Опубликовал: Админ | Дата: 27-07-2016, 05:00 | Просмотров: 44



    Детально о кино
    Русское название: Слушание/Подтверждение
    Русское название в мировом прокате: Confirmation
    Создали в: 2016
    Категория жанра: Драма, история
    Главный режиссер: Рик Фамуйива

    Актеры
    Керри Вашингтон, Зои Листер Джонс, Эрика Кристенсен, Грэйс Гаммер, Элисон Райт, Эрик Стоунстрит, Джеффри Райт, Грег Киннер, Дженнифер Хадсон, Уенделл Пирс

    Сюжет фильма

    Двадцать пять лет назад в Верховном суде США произошло скандальное событие. Фильм HBO расскажет о делах давно минувших дней. Тогда, в 1991 году, на слушаниях в Сенате по утверждению Кларенса Томаса членом коллегии Верховного суда с обвинениями в сексуальных домогательствах выступила его бывшая подчиненная Анита Хилл. В конечном итоге Томас был утвержден, но это дело стало исторически значимым и вдохновило миллионы женщин на борьбу за свои права. Героиня тех дней одобрила игру своей “преемницы” – Аниту сыграла Керри Вашингтон, известная по сериалу Скандал.

    Снималось в: США
    Киностудия: ABC Signature Studios, Groundswell Productions, HBO Films
    Время просмотра: 01: 49: 42
    Перевод текста: Профессиональный многоголосый (закадровый) | Amedia
    Файл
    Кодек для видео: x264
    Качество фильма: BDRip 1080p
    Информация о видео: 1920x1080, 9724 Kbit/s, 23.976 fps
    Информация о звуке:
    Информация о звуке #01: 48 kHz, AC3, 5.1, 448 Kbps | Профессиональный многоголосый (закадровый) | Amedia |
    Информация о звуке #02: 48 kHz, DTS, 5.1, 1510 kbps | Оригинал |
    Субтитры: Английские
    MI
    General
    Unique ID : 209655781997224651583733802994034173642 (0x9DBA3C1F89D451B9B2F152AA682266CA)
    Complete name : G: VideoConfirmation.2016.MVO.BDRip.1080p.ExKinoRay.mkv
    Format : Matroska
    Format version : Version 4/Version 2
    File size : 8.95 GiB
    Duration : 1h 49mn
    Overall bit rate : 11.7 Mbps
    Movie name : Confirmation.2016.MVO.BDRip.1080p.ExKinoRay
    Encoded date : UTC 2016-07-26 12: 11: 47
    Writing application : mkvmerge v8.3.0 (;Over the Horizon;) 64bit
    Writing library : libebml v1.3.1 + libmatroska v1.4.2
    Video
    ID : 1
    Format : AVC
    Format/Info : Advanced Video Codec
    Format profile : High@L4.1
    Format settings, CABAC : Yes
    Format settings, ReFrames : 4 frames
    Codec ID : V_MPEG4/ISO/AVC
    Duration : 1h 49mn
    Bit rate : 9 724 Kbps
    Width : 1 920 pixels
    Height : 1 080 pixels
    Display aspect ratio : 16: 9
    Frame rate mode : Constant
    Frame rate : 23.976 (24000/1001) fps
    Color space : YUV
    Chroma subsampling : 4: 2: 0
    Bit depth : 8 bits
    Scan type : Progressive
    Bits/(Pixel*Frame) : 0.196
    Stream size : 7.45 GiB (83%)
    Writing library : x264 core 148 r2692+2+42 c1a827b Yuuki 8-bit@4: 2: 0 X86_64GCC 5.3.0
    Encoding settings : cabac=1/ref=4/deblock=1: -3: -3/analyse=0x3: 0x113/me=umh/subme=11/psy=1/fade_compensate=0.00/psy_rd=1.00: 0.05/mixed_ref=1/me_range=32/chroma_me=1/trellis=2/8x8dct=1/cqm=0/deadzone=21, 11/fast_pskip=0/chroma_qp_offset=-4/threads=60/lookahead_threads=8/sliced_threads=0/nr=0/decimate=1/interlaced=0/bluray_compat=0/constrained_intra=0/fgo=0/bframes=8/b_pyramid=2/b_adapt=2/b_bias=0/direct=3/weightb=1/open_gop=0/weightp=2/keyint=250/keyint_min=23/scenecut=40/intra_refresh=0/rc_lookahead=40/rc=crf/mbtree=0/crf=19.7500/qcomp=0.60/qpmin=0: 0: 0/qpmax=69: 69: 69/qpstep=4/vbv_maxrate=50000/vbv_bufsize=40000/crf_max=0.0/nal_hrd=none/filler=0/ip_ratio=1.40/pb_ratio=1.30/aq=3: 0.90
    Language : English
    Default : Yes
    Forced : No
    Audio #1
    ID : 2
    Format : AC-3
    Format/Info : Audio Coding 3
    Mode extension : CM (complete main)
    Format settings, Endianness : Big
    Codec ID : A_AC3
    Duration : 1h 49mn
    Bit rate mode : Constant
    Bit rate : 448 Kbps
    Channel(s) : 6 channels
    Channel positions : Front: L C R, Side: L R, LFE
    Sampling rate : 48.0 KHz
    Frame rate : 31.250 fps (1536 spf)
    Compression mode : Lossy
    Stream size : 352 MiB (4%)
    Title : MVO Amedia
    Language : Russian
    Default : Yes
    Forced : No
    Audio #2
    ID : 3
    Format : DTS
    Format/Info : Digital Theater Systems
    Mode : 16
    Format settings, Endianness : Big
    Codec ID : A_DTS
    Duration : 1h 49mn
    Bit rate mode : Constant
    Bit rate : 1 509 Kbps
    Channel(s) : 6 channels
    Channel positions : Front: L C R, Side: L R, LFE
    Sampling rate : 48.0 KHz
    Frame rate : 93.750 fps (512 spf)
    Bit depth : 24 bits
    Compression mode : Lossy
    Stream size : 1.16 GiB (13%)
    Title : Original
    Language : English
    Default : No
    Forced : No
    Text
    ID : 4
    Format : UTF-8
    Codec ID : S_TEXT/UTF8
    Codec ID/Info : UTF-8 Plain Text
    Duration : 1h 49mn
    Bit rate : 94 bps
    Count of elements : 1764
    Stream size : 76.0 KiB (0%)
    Title : SDH
    Language : English
    Default : No
    Forced : No
    Menu
    00: 00: 00.000 : en: 00: 00: 00.000
    00: 10: 41.266 : en: 00: 10: 41.266
    00: 15: 32.265 : en: 00: 15: 32.265
    00: 23: 45.340 : en: 00: 23: 45.340
    00: 30: 56.563 : en: 00: 30: 56.563
    00: 36: 01.367 : en: 00: 36: 01.367
    00: 45: 36.317 : en: 00: 45: 36.317
    00: 48: 48.509 : en: 00: 48: 48.509
    00: 54: 51.455 : en: 00: 54: 51.455
    01: 01: 46.244 : en: 01: 01: 46.244
    01: 08: 32.608 : en: 01: 08: 32.608
    01: 16: 11.609 : en: 01: 16: 11.609
    01: 22: 20.143 : en: 01: 22: 20.143
    01: 29: 52.011 : en: 01: 29: 52.011
    01: 36: 46.092 : en: 01: 36: 46.092
    01: 42: 08.497 : en: 01: 42: 08.497
    Скриншоты

    Релиз подготовил: Автор релиза:

    Онлайн видео Слушание


    Размер скачиваемого торрента: 8.95 GB (9613458086 Bytes)

    Слушание/Подтверждение/Confirmation (2016) BDRip 1080p от ExKinoRay | P
    загрузка...
    Рейтинг →
     (голосов: 1, оценка 4/5, голосовать можно 1 раз )

    Другие торренты по теме:

  • Слушание / Подтверждение / Confirmation (2016) HDRip от MegaPeer | P скачать торрент бесплатно


    • Комментарии (0):

      Информация

      Информация

        Посетители, находящиеся в группе Гости, не могут оставлять комментарии в данной новости.

        ↓ Меню



        ↓ Опрос

        А Вы добавили сайт в закладки?
        Да
        Не


        Top 10 за неделю (Фильмы)