.
Авторизация | Регистрация
» » Гангстер / Hoodlum (1997) HDRip от Leon-masl | P, А скачать торрент бесплатно




    Гангстер / Hoodlum (1997) HDRip от Leon-masl | P, А скачать торрент бесплатно

    Опубликовал: Админ | Дата: 27-07-2016, 05:00 | Просмотров: 26



    Детально о кино
    Русское название: Гангстер
    Русское название в мировом прокате: Hoodlum
    Создали в: 1997
    Категория жанра: драма, криминал
    Главный режиссер: Билл Дьюк/Bill Duke

    Актеры
    Лоренс Фишбёрн, Тим Рот, Ванесса Уильямс, Энди Гарсиа, Сисели Тайсон, Чи МакБрайд, Кларенс Уильямс III, Ричард Брэдфорд, Уильям Этертон, Лоретта Дивайн

    Сюжет фильма

    30-е годы. Теневая преступность выплескивается на улицы Нью-Йорка, и смертельная вражда стравливает гангстера с гангстером. Бампи Джонсон, глава гарлемских рэкетиров, преисполнен гордости и чувства собственного превосходства. Когда дикий, необузданный Голландец Шульц совершает серию дерзких налетов на его территорию, Бампи понимает, что для победы над Голландцем необходимо принять его правила игры. По мере того, как свирепая, непримиримая война набирает обороты, все, включая личную жизнь Бампи, выходит из-под контроля. Помочь может лишь крайнее средство — привлечение на свою сторону самого страшного и могущественного гангстера в истории мафии — Лаки Лючано.

    Снималось в: США
    Киностудия: United Artists Pictures
    Время просмотра: 02: 10: 28
    Перевод текста: Профессиональный (многоголосый, закадровый) |Союз-Видео|, Авторский (одноголосый закадровый) Живов
    Файл
    Кодек для видео: XviD
    Качество фильма: HDRip
    Информация о видео: 704x384, 23.976 fps, XviD build 73 ~1215 kbps
    Информация о звуке 1: 48 kHz, AC3 Dolby Digital, 2/0 (L, R) ch, ~192 kbps.....Профессиональный (многоголосый, закадровый) |Союз-Видео|
    Информация о звуке 2: 48 kHz, AC3 Dolby Digital, 2/0 (L, R) ch, ~192 kbps.....Авторский (одноголосый закадровый) Живов
    MI
    Общее
    Полное имя : Hoodlum.1997.HDRip.2xRus.avi
    Формат : AVI
    Формат/Информация : Audio Video Interleave
    Размер файла : 1, 47 Гбайт
    Продолжительность : 2 ч. 10 м.
    Общий поток : 1613 Кбит/сек
    Программа кодирования : VirtualDubMod 1.5.10.2 (build 2542/release)
    Библиотека кодирования : VirtualDubMod build 2542/release
    Видео
    Идентификатор : 0
    Формат : MPEG-4 Visual
    Профиль формата : Advanced Simple@L5
    Параметр BVOP формата : 2
    Параметр QPel формата : Нет
    Параметр GMC формата : Без точки перехода
    Параметр матрицы формата : Выборочная
    Идентификатор кодека : XVID
    Идентификатор кодека/Подсказка : XviD
    Продолжительность : 2 ч. 10 м.
    Битрейт : 1215 Кбит/сек
    Ширина : 704 пикс.
    Высота : 384 пикс.
    Соотношение сторон : 16: 9
    Частота кадров : 23, 976 кадр/сек
    Цветовое пространство : YUV
    Подвыборка цветности : 4: 2: 0
    Битовая глубина : 8 бит
    Тип развёртки : Прогрессивная
    Метод сжатия : С потерями
    Бит/(Пиксели*Кадры) : 0.187
    Размер потока : 1, 11 Гбайт (75%)
    Библиотека кодирования : XviD 73
    Аудио #1
    Идентификатор : 1
    Формат : AC-3
    Формат/Информация : Audio Coding 3
    Расширение режима : CM (complete main)
    Идентификатор кодека : 2000
    Продолжительность : 2 ч. 10 м.
    Вид битрейта : Постоянный
    Битрейт : 192 Кбит/сек
    Канал(ы) : 2 канала(ов)
    Расположение каналов : Front: L R
    Частота : 48, 0 КГц
    Битовая глубина : 16 бит
    Метод сжатия : С потерями
    Размер потока : 179 Мбайт (12%)
    Выравнивание : Разделение по промежуткам
    Продолжительность промежутка : 42 мс. (1, 00 видеокадр)
    Время предзагрузки промежутка : 500 ms
    Аудио #2
    Идентификатор : 2
    Формат : AC-3
    Формат/Информация : Audio Coding 3
    Расширение режима : CM (complete main)
    Идентификатор кодека : 2000
    Продолжительность : 2 ч. 10 м.
    Вид битрейта : Постоянный
    Битрейт : 192 Кбит/сек
    Канал(ы) : 2 канала(ов)
    Расположение каналов : Front: L R
    Частота : 48, 0 КГц
    Битовая глубина : 16 бит
    Метод сжатия : С потерями
    Размер потока : 179 Мбайт (12%)
    Выравнивание : Разделение по промежуткам
    Продолжительность промежутка : 42 мс. (1, 00 видеокадр)
    Время предзагрузки промежутка : 500 ms
    Скриншоты

    Релиз подготовил: Leon-masl
    Залил: leon-masl

    Онлайн видео Гангстер


    Размер скачиваемого торрента: 1.47 GB (1577361408 Bytes)

    Гангстер/Hoodlum (1997) HDRip от Leon-masl | P, А
    загрузка...
    Рейтинг →
     (голосов: 1, оценка 3/5, голосовать можно 1 раз )

    Другие торренты по теме:

  • Гангстер / Hoodlum (1997) HDTVRip | А торрент скачать бесплатно
  • Гангстер / Hoodlum (1997) BDRip 720p | P, A скачать торрент бесплатно


    • Комментарии (0):

      Информация

      Информация

        Посетители, находящиеся в группе Гости, не могут оставлять комментарии в данной новости.

        ↓ Меню



        ↓ Опрос

        А Вы добавили сайт в закладки?
        Да
        Не


        Top 10 за неделю (Фильмы)