.
Авторизация | Регистрация
» » Мистер Шесть / Большой брат / Mr. Six / Lao pao er (2015) BDRip 1080p от ExKinoRay | L1 скачать торрент бесплатно




    Мистер Шесть / Большой брат / Mr. Six / Lao pao er (2015) BDRip 1080p от ExKinoRay | L1 скачать торрент бесплатно

    Опубликовал: Админ | Дата: 28-07-2016, 04:57 | Просмотров: 73



    Детально о кино
    Русское название: Мистер Шесть/Большой брат
    Русское название в мировом прокате: Mr. Six/Lao pao er
    Создали в: 2015
    Категория жанра: Боевик, драма
    Главный режиссер: Ху Гуань

    Актеры
    Джу-Ганг Бай, Сяоган Фэн, Шан Цзянь, И Фэн Ли, Лян Цзин, Хуа Лю, Нин Хао, Цзэжу Тао, Чжан Ханьюй

    Сюжет фильма

    Лю Е — 50-летний вор в законе, который когда-то царствовал на улицах Пекина. В преступных кругах его называли Лао Пао Эр, что означает старая пушка. Однажды его непослушный сын ввязывается в потасовку с уличной бандой гонщиков. Лю Е вступается за сына, пытаясь усмирить молодёжь своим авторитетом.

    Снималось в: Китай
    Киностудия: Huayi Brothers Taihe Film Investment
    Время просмотра: 02: 16: 40
    Перевод текста: Любительский одноголосый (закадровый) | Ворон
    Файл
    Кодек для видео: MPEG-4
    Качество фильма: BDRip 1080p
    Информация о видео: 1920x720, 11.4 Mbit/s, 24.000 fps
    Информация о звуке:
    Информация о звуке #01: 48 kHz, AC3, 2.0, 224 Kbps | Любительский одноголосый (закадровый) | Ворон |
    Информация о звуке #02: 48 kHz, AC3, 2.0, 640 kbps | Оригинал |
    Субтитры: Русский (полные), русские (форсированные)
    MI
    General
    Unique ID : 228420785344729511138525491463003810825 (0xABD83E37F93100F9A931BB00A71FAC09)
    Complete name : G: VideoMr.Six.2015.VO.BDRip.1080p.ExKinoRay.mkv
    Format : Matroska
    Format version : Version 4/Version 2
    File size : 11.7 GiB
    Duration : 2h 16mn
    Overall bit rate : 12.2 Mbps
    Movie name : Mr.Six.2015.VO.BDRip.1080p.ExKinoRay
    Encoded date : UTC 2016-07-25 20: 26: 22
    Writing application : mkvmerge v8.3.0 (;Over the Horizon;) 64bit
    Writing library : libebml v1.3.1 + libmatroska v1.4.2
    Video
    ID : 1
    Format : AVC
    Format/Info : Advanced Video Codec
    Format profile : High@L4.1
    Format settings, CABAC : Yes
    Format settings, ReFrames : 5 frames
    Codec ID : V_MPEG4/ISO/AVC
    Duration : 2h 16mn
    Bit rate : 11.4 Mbps
    Width : 1 920 pixels
    Height : 720 pixels
    Display aspect ratio : 2.667
    Frame rate mode : Constant
    Frame rate : 24.000 fps
    Color space : YUV
    Chroma subsampling : 4: 2: 0
    Bit depth : 8 bits
    Scan type : Progressive
    Bits/(Pixel*Frame) : 0.343
    Stream size : 10.9 GiB (93%)
    Writing library : x264 core 142 r2431+42 c69a006 tMod 8-bit@all X86_64
    Encoding settings : cabac=1/ref=5/deblock=1: -3: -3/analyse=0x3: 0x133/me=umh/subme=11/psy=1/fade_compensate=0.00/psy_rd=0.90: 0.00/mixed_ref=1/me_range=32/chroma_me=1/trellis=2/8x8dct=1/cqm=0/deadzone=21, 11/fast_pskip=0/chroma_qp_offset=-2/threads=12/lookahead_threads=2/sliced_threads=0/nr=0/decimate=0/interlaced=0/bluray_compat=0/constrained_intra=0/fgo=0/bframes=8/b_pyramid=2/b_adapt=2/b_bias=0/direct=3/weightb=1/open_gop=0/weightp=2/keyint=240/keyint_min=24/scenecut=40/intra_refresh=0/rc_lookahead=60/rc=crf/mbtree=0/crf=14.8000/qcomp=0.60/qpmin=0: 0: 0/qpmax=69: 69: 69/qpstep=4/vbv_maxrate=40000/vbv_bufsize=30000/crf_max=0.0/nal_hrd=none/filler=0/ip_ratio=1.40/pb_ratio=1.30/aq=1: 0.90/aq-sensitivity=10.00/aq-factor=1.00: 1.00: 1.00/aq2=0/aq3=0
    Language : Chinese
    Default : Yes
    Forced : No
    Audio #1
    ID : 2
    Format : AC-3
    Format/Info : Audio Coding 3
    Mode extension : CM (complete main)
    Format settings, Endianness : Big
    Codec ID : A_AC3
    Duration : 2h 16mn
    Bit rate mode : Constant
    Bit rate : 224 Kbps
    Channel(s) : 2 channels
    Channel positions : Front: L R
    Sampling rate : 48.0 KHz
    Frame rate : 31.250 fps (1536 spf)
    Compression mode : Lossy
    Delay relative to video : 24ms
    Stream size : 219 MiB (2%)
    Title : VO Ворон
    Language : Russian
    Default : Yes
    Forced : No
    Audio #2
    ID : 3
    Format : AC-3
    Format/Info : Audio Coding 3
    Mode extension : CM (complete main)
    Format settings, Endianness : Big
    Codec ID : A_AC3
    Duration : 2h 16mn
    Bit rate mode : Constant
    Bit rate : 640 Kbps
    Channel(s) : 2 channels
    Channel positions : Front: L R
    Sampling rate : 48.0 KHz
    Frame rate : 31.250 fps (1536 spf)
    Compression mode : Lossy
    Stream size : 626 MiB (5%)
    Title : Original
    Language : Chinese
    Default : No
    Forced : No
    Text #1
    ID : 4
    Format : ASS
    Codec ID : S_TEXT/ASS
    Codec ID/Info : Advanced Sub Station Alpha
    Duration : 50mn 20s
    Bit rate : 1 bps
    Count of elements : 5
    Compression mode : Lossless
    Stream size : 460 Bytes (0%)
    Title : forced
    Language : Russian
    Default : Yes
    Forced : No
    Text #2
    ID : 5
    Format : ASS
    Codec ID : S_TEXT/ASS
    Codec ID/Info : Advanced Sub Station Alpha
    Duration : 2h 13mn
    Bit rate : 170 bps
    Count of elements : 1908
    Compression mode : Lossless
    Stream size : 166 KiB (0%)
    Title : ФСГ ;WATT;
    Language : Russian
    Default : No
    Forced : No
    Menu
    00: 00: 00.000 : en: 00: 00: 00.000
    00: 12: 39.333 : en: 00: 12: 39.333
    00: 25: 01.708 : en: 00: 25: 01.708
    00: 36: 53.625 : en: 00: 36: 53.625
    00: 48: 16.875 : en: 00: 48: 16.875
    01: 00: 02.917 : en: 01: 00: 02.917
    01: 12: 11.542 : en: 01: 12: 11.542
    01: 25: 55.708 : en: 01: 25: 55.708
    01: 37: 08.708 : en: 01: 37: 08.708
    01: 48: 18.583 : en: 01: 48: 18.583
    02: 00: 24.542 : en: 02: 00: 24.542
    02: 12: 41.125 : en: 02: 12: 41.125
    Примечание
    Внимание! Фильм содержит ненормативную лексику.
    Скриншоты

    Релиз подготовил: Автор релиза:

    Онлайн видео Мистер Шесть


    Размер скачиваемого торрента: 11.69 GB (12548660583 Bytes)

    Мистер Шесть/Большой брат/Mr. Six/Lao pao er (2015) BDRip 1080p от ExKinoRay | L1
    загрузка...
    Рейтинг →
     (голосов: 1, оценка 3/5, голосовать можно 1 раз )

    Другие торренты по теме:

  • Счастливого рождества, мистер Лоуренс / Merry Christmas Mr. Lawrence (1983) BDRip от HQCLUB торрент скачать бесплатно
  • Талантливый мистер Рипли / The Talented mr. Ripley (1999) BDRip | D торрент скачать бесплатно
  • Мистер вонючка / Mr. Stink (2012) HDTVRip | Baibako торрент скачать бесплатно
  • Мистер Бин на отдыхе / Mr. Beans Holiday (2007) BDRip-AVC от potroks | D торрент скачать бесплатно
  • Мистер Селфридж / Mr. Selfridge (2013) WEB-DLRip торрент скачать бесплатно
  • В поисках мистера Гудбара / Найти хорошего парня / Looking for Mr. Goodbar (1977) SATRip by DST торрент скачать бесплатно
  • Мистер бабочка / Mr. Butterfly (2003) DVDRip | L1 торрент скачать бесплатно
  • Мистер Эксцентричность / Saeng, nalseonsaeng / Mr. Wacky (2006) DVDRip | L1 торрент скачать бесплатно


    • Комментарии (0):

      Информация

      Информация

        Посетители, находящиеся в группе Гости, не могут оставлять комментарии в данной новости.

        ↓ Меню



        ↓ Опрос

        А Вы добавили сайт в закладки?
        Да
        Не


        Top 10 за неделю (Фильмы)