.
Авторизация | Регистрация
Хочешь лучшие торренты? Добавь свой email!
Добавить
» » Счастье Андруса (1955) SATRip от New-Team торрент скачать бесплатно




    Счастье Андруса (1955) SATRip от New-Team торрент скачать бесплатно

    Опубликовал: Админ | Дата: 29-07-2016, 05:01 | Просмотров: 65



    Снималось в: СССР
    Создали в: Ленфильм
    Категория жанра: драма
    Создали в: 1955
    Время просмотра: 01: 29: 03
    Перевод текста: Не требуется
    Субтитры подготовлены: нет
    Оригинальная аудиодорожка: русский
    Главный режиссер: Герберт Раппапорт

    Актеры

    Э. Андуссон, Антс Лаутер, Ита Эвер, Хуго Лаур, Реэт (Рут) Пераметс, Калью Ваха, Рудольф Нууде, Кальё Кийск, Юри Ярвет, Линда Тубин, Лембит Ээльмяэ, Яанус Оргулас, М. Маазинг...
    Полный список актёров
    Описание:
    По роману Ганса Леберехта Капитаны.
    Не сдав экзамены в морскую школу, сын рыбака Андрус Лаан приходит на завод. Сделав ряд рационализаторских предложений, Андрус становится новатором производства. Однако быстрый успех кружит парню голову — и в его отношениях с любимой девушкой назревает разлад. Первая роль в кино Юрия Ярвета (Роберт).



    Источник: DVB
    Качество фильма видео: SATRip
    Тип видео видео: AVI
    Информация о видео: 704x528 (4: 3), 25 fps, XviD ~ 1551 kbps avg, 0.167 bit/pixel
    Информация о звуке: 48 kHz, Dolby Digital AC3 2.0, 192 kbps
    Раздача от:
    MediaInfo

    Общее
    Полное имя : Schaste.Andrusa.1955.SATRip_New-team_by_AVP_Studio.avi
    Формат : AVI
    Формат/Информация : Audio Video Interleave
    Размер файла : 1, 09 Гбайт
    Продолжительность : 1 ч. 29 м.
    Общий поток : 1753 Кбит/сек
    Программа кодирования : VirtualDubMod 1.5.10.3 | www.virtualdub-fr.org || (build 2550/release)
    Библиотека кодирования : VirtualDubMod build 2550/release
    Видео
    Идентификатор : 0
    Формат : MPEG-4 Visual
    Профиль формата : Advanced Simple@L5
    Параметр BVOP формата : 1
    Параметр QPel формата : Нет
    Параметр GMC формата : Без точки перехода
    Параметр матрицы формата : Выборочная
    Идентификатор кодека : XVID
    Идентификатор кодека/Подсказка : XviD
    Продолжительность : 1 ч. 29 м.
    Битрейт : 1551 Кбит/сек
    Ширина : 704 пикселя
    Высота : 528 пикселей
    Соотношение сторон : 4: 3
    Частота кадров : 25, 000 кадров/сек
    Цветовое пространство : YUV
    Субдискретизация насыщенности : 4: 2: 0
    Битовая глубина : 8 бит
    Тип развёртки : Прогрессивная
    Метод сжатия : С потерями
    Бит/(Пиксели*Кадры) : 0.167
    Размер потока : 988 Мбайт (88%)
    Библиотека кодирования : XviD 1.2.1 (UTC 2008-12-04)
    Аудио
    Идентификатор : 1
    Формат : AC-3
    Формат/Информация : Audio Coding 3
    Расширение режима : CM (complete main)
    Параметр Endianness формата : Big
    Идентификатор кодека : 2000
    Продолжительность : 1 ч. 29 м.
    Вид битрейта : Постоянный
    Битрейт : 192 Кбит/сек
    Каналы : 2 канала
    Расположение каналов : Front: L R
    Частота : 48, 0 КГц
    Частота кадров : 31, 250 кадров/сек (1536 spf)
    Метод сжатия : С потерями
    Размер потока : 122 Мбайт (11%)
    Выравнивание : Разделение по промежуткам
    Продолжительность промежутка : 40 мс. (1, 00 видеокадр)
    Время предзагрузки промежутка : 500 мс

    Скриншоты



    Залил: AVPStudio

    Онлайн видео Счастье Андруса (1955) SATRip от New


    Размер скачиваемого торрента: 1.09 GB (1170436096 Bytes)

    Счастье Андруса (1955) SATRip от New-Team
    загрузка...
    Рейтинг →
     (голосов: 1, оценка 5/5, голосовать можно 1 раз )

    Другие торренты по теме:

  • Счастье Андруса / 1955 / РУ / SATRip


    • Комментарии (0):

      Информация

      Информация

        Посетители, находящиеся в группе Гости, не могут оставлять комментарии в данной новости.

        ↓ Меню



        ↓ Опрос

        А Вы добавили сайт в закладки?
        Да
        Не


        Top 10 за месяц (Фильмы)